By tienthanh_232007
#590862 [Lịch sử] Quills 2000 DVDRip XviD AC3 - CODY







Ratings: 7,3/10 from 33.265 users Metascore: 70/100
Bấm vào đây để đăng nhập và xem link!

Chàng hầu tước vùng Sade là một người thích gây rối, vào lúc quê mẹ Pháp của anh đang trong tình trạng rối loạn chính trị khủng khiếp, và thời điểm lịch sử đó phán xét bao nhiêu tranh cãi anh có thể gây nên cho dù bị đàn áp. Sau cuộc cách mạng Pháp, hầu tước vùng Sade (Geoffrey Rush) tìm cách thoát khỏi việc xử tử trong Triều đại Kinh hoàng, thay vào đó anh bị đày đến Nhà thương điên Charenton. Coulmier (Joanquin Phoenix), cha xứ đứng đầu nhà thương, vô cùng thông cảm khi những mưu toan chính trị đã dẫn hầu tước đến tình trạng này. Ông không chỉ chăm sóc cho anh cẩn thận, cho phép anh viết tuỳ thích mà còn dựng các kịch bản của anh thành kịch với những diễn viên là các bệnh nhân ở đó. Royer-Collard (Michael Caine), một bác sĩ độc tài quản lý viện tâm thần Napoleonic France, phát điên lên y như nhà cầm quyền khi đọc Justine, một bản nháp do hầu tước viết khi ở Charenton, và ông bắt anh phải dừng lại. Nhưng ông sớm nhận ra rằng bắt hầu tước ngừng viết không phải là một việc đơn giản. Khi bút lông ngỗng và mực của anh bị lấy đi, anh dùng rượu và máu để viết. Khi không có những thứ đó nữa, anh tiếp tục viết với sự giúp đỡ của Madeline (Kate Winslet), cô gái làm việc giặt ủi ở nhà thương điên, người luôn say mê anh hầu tước tai tiếng nhưng vẫn thường từ chối những khi anh đòi hỏi thoã mãn tình dục. Dựa trên vở kịch của Doug Wright (cũng là người viết kịch bản), Quills được đạo diễn bởi Philip Kaufman, người đã làm những bộ phim vừa có tính văn học vừa tràn đầy đam mê như Henry and June và The Unbearable Lightness of Being. (Theo truongton).


Code: General
Complete name : Quills [2000] DVDRip XviD AC3 - CODY.avi
Format : AVI
Format/Info : Audio Video Interleave
Format profile : OpenDML
File size : 2.04 GiB
Duration : 1h 59mn
Overall bit rate : 2 450 Kbps
Writing application : VirtualDubMod 1.5.10.3 | www.virtualdub-fr.org || (build 2550/release)
Writing library : VirtualDubMod build 2550/release

Video
ID : 0
Format : MPEG-4 Visual
Format profile : Advanced [email protected]
Format settings, BVOP : 4
Format settings, QPel : No
Format settings, GMC : No warppoints
Format settings, Matrix : Default (H.263)
Codec ID : XVID
Codec ID/Hint : XviD
Duration : 1h 59mn
Bit rate : 1 989 Kbps
Width : 720 pixels
Height : 392 pixels
Display aspect ratio : 16:9
Frame rate : 25.000 fps
Color space : YUV
Chroma subsampling : 4:2:0
Bit depth : 8 bits
Scan type : Progressive
Compression mode : Lossy
Bits/(Pixel*Frame) : 0.282
Stream size : 1.65 GiB (81%)
Writing library : XviD 1.2.1 (UTC 2008-12-04)

Audio
ID : 1
Format : AC-3
Format/Info : Audio Coding 3
Mode extension : CM (complete main)
Codec ID : 2000
Duration : 1h 59mn
Bit rate mode : Constant
Bit rate : 448 Kbps
Channel(s) : 6 channels
Channel positions : Front: L C R, Side: L R, LFE
Sampling rate : 48.0 KHz
Bit depth : 16 bits
Compression mode : Lossy
Stream size : 381 MiB (18%)
Alignment : Split accross interleaves
Interleave, duration : 40 ms (1.00 video frame)
Interleave, preload duration : 500 ms





1 Link 2 GB



Code: Bấm vào đây để đăng nhập và xem link!




Code: Bấm vào đây để đăng nhập và xem link!



Code: http://v2.subscene.com/quills/subtitles-7926.aspx


Tất tần tật về Emmanuelle
Bấm vào đây để đăng nhập và xem link!

Lưu ý khi sử dụng

- Gặp Link download hỏng, hãy đăng trả lời (yêu cầu link download mới), Các MOD sẽ cập nhật link sớm nhất
- Tìm kiếm trước khi đăng bài mới

Chủ đề liên quan:
Kết nối đề xuất: