By langtusau1088
#585752 Tập 2: The Matrix Reloaded (2003)



Neo, Morpheus, Trinity và các đồng sự còn lại của mình tiếp tục cuộc chiến với những người nổi dậy của đế chế máy móc. Giờ đây ngày càng nhiều có nhiều con người được đánh thức khỏi ma trận và họ cố gắng để trở về với cuộc sống thực của mình. Và mặc dù ngày càng nhiều người được trở về với thực tại bọn người máy vẫn nổi dậy và cuộc chiến đã diễn ra tại thành phố Zion, thành phố duy nhất mà sự sống của loài người còn tồn tại


Format : AVI

Format/Info : Audio Video Interleave

File size : 700 MiB

Duration : 2h 18mn

Overall bit rate : 708 Kbps

Writing application : VirtualDubMod 1.5.4.1 (build 2178/release)

Writing library : VirtualDubMod build 2178/release


Video #0

ID : 0

Format : MPEG-4 Visual

Codec ID : XVID

Codec ID/Hint : XviD

Duration : 2h 18mn

Bit rate : 578 Kbps

Width : 560 pixels

Height : 240 pixels

Display aspect ratio : 2.35:1

Frame rate : 23.976 fps

Chroma subsampling : 4:2:0

Bit depth : 8 bits

Scan type : Progressive

Compression mode : Lossy

Bits/(Pixel*Frame) : 0.179

Stream size : 572 MiB (82%)

Writing library : XviD 1.1.0 (UTC 2005-11-22)


Audio #1

ID : 1

Format : MPEG Audio

Mode : Joint stereo

Mode extension : MS Stereo

Codec ID : 55

Codec ID/Hint : MP3

Duration : 2h 18mn

Bit rate mode : Variable

Bit rate : 117 Kbps

Nominal bit rate : 128 Kbps

Channel(s) : 2 channels

Sampling rate : 48.0 KHz

Compression mode : Lossy

Delay relative to video : 48ms

Stream size : 116 MiB (17%)

Interleave, duration : 24 ms (0.58 video frame)

Interleave, preload duration : 301 ms

Language : English














Bấm vào đây để đăng nhập và xem link!
Bấm vào đây để đăng nhập và xem link!

Lưu ý khi sử dụng

- Gặp Link download hỏng, hãy đăng trả lời (yêu cầu link download mới), Các MOD sẽ cập nhật link sớm nhất
- Tìm kiếm trước khi đăng bài mới

Chủ đề liên quan:
By Win
By Sorrell
#585777 Sao cause screenshot nhỏ thế bác ơi Sorry mình take screenshot thế cho tiện tại lúc đấy bận Để mình chỉnh lại chụp từng cái một
Kết nối đề xuất: