By tieudieutuxu_tieungaogiangho
#574770 Rio (2011)



Bấm vào đây để đăng nhập và xem link! Code: Format : Matroska
File size : 863 MiB
Duration : 1h 35mn
Overall bit rate : 1 257 Kbps
Encoded date : UTC 2011-07-13 15:14:37
Writing application : mkvmerge v4.8.0 ('I Got The...') built on May 24 2011 03:12:58
Writing library : libebml v1.2.0 + libmatroska v1.1.0

Video
ID : 1
Format : AVC
Format/Info : Advanced Video Codec
Format profile : [email protected]
Format settings, CABAC : Yes
Format settings, ReFrames : 7 frames
Muxing mode : Header stripping
Codec ID : V_MPEG4/ISO/AVC
Duration : 1h 35mn
Bit rate : 1 000 Kbps
Width : 848 pixels
Height : 354 pixels
Display aspect ratio : 2.35:1
Frame rate : 23.976 fps
Color space : YUV
Chroma subsampling : 4:2:0
Bit depth : 8 bits
Scan type : Progressive
Bits/(Pixel*Frame) : 0.139
Stream size : 670 MiB (78%)
Title : MoCk
Writing library : x264 core 115 r1995 c1e60b9
Language : Vietnamese

Audio
ID : 2
Format : AC-3
Format/Info : Audio Coding 3
Mode extension : CM (complete main)
Muxing mode : Header stripping
Codec ID : A_AC3
Duration : 1h 35mn
Bit rate mode : Constant
Bit rate : 256 Kbps
Channel(s) : 2 channels
Channel positions : Front: L R
Sampling rate : 44.1 KHz
Bit depth : 16 bits
Compression mode : Lossy
Delay relative to video : 35ms
Stream size : 176 MiB (20%) Blu là một chú vẹt nhà chưa từng học bay, và thích cuộc sống tiện nghi với Linda, người chủ và cũng là người bạn thân nhất của mình tại một thị trấn nhỏ ở Moose Lake, Minnesota.


Blu và Linda nghĩ rằng Blu là con vẹt cuối cùng của chủng loài, nhưng khi tìm hiểu về một con vẹt khác sống tại Rio de Janeiro, cả hai quyết định đi đến xứ sở xa xôi và kỳ lạ đó để tìm Jewel, một cô vẹt cái cùng loài với Blu.


Không lâu khi họ ra đi, Blu và Jewel bị một bọn buôn lậu động vật bắt cóc. Blu đã trốn thoát, với sự trợ giúp của cô vẹt đường phố thông minh Jewel và một nhóm những chú chim thành phố khôn ngoan và khéo léo. Giờ đây, với những người bạn ở bên cạnh, Blu phải tìm được lòng can đảm để tập bay, vượt qua những kẻ bắt cóc vẫn rình rập trên đường, và trở về với Linda, người bạn tốt nhất mà một chú chim có thể có. Screenshot:

Bấm vào đây để đăng nhập và xem link! Bấm vào đây để đăng nhập và xem link! Bấm vào đây để đăng nhập và xem link! Bấm vào đây để đăng nhập và xem link!
Bấm vào đây để đăng nhập và xem link! Bấm vào đây để đăng nhập và xem link!
Bấm vào đây để đăng nhập và xem link!
Bấm vào đây để đăng nhập và xem link!
Bấm vào đây để đăng nhập và xem link!
Bấm vào đây để đăng nhập và xem link!
Bấm vào đây để đăng nhập và xem link!
Bấm vào đây để đăng nhập và xem link!
Bấm vào đây để đăng nhập và xem link!
Bấm vào đây để đăng nhập và xem link! [email protected]/forum

Lưu ý khi sử dụng

- Gặp Link download hỏng, hãy đăng trả lời (yêu cầu link download mới), Các MOD sẽ cập nhật link sớm nhất
- Tìm kiếm trước khi đăng bài mới

Chủ đề liên quan:
Kết nối đề xuất: