By yuna_ichi
#574709 魔女の宅急便 - Kiki's Delivery Service

Dich vu giao hang Kiki (1989) 720p HDTV




Tên phim: 魔女の宅急便 - Kiki's Delivery Service
IMDB Rating: 7.8/10 from 35,939 users
IMDb: Bấm vào đây để đăng nhập và xem link!
Tên khác: Dich vu giao hàng Kiki
Đạo diễn: Hayao Miyazaki
Diễn viên: Kirsten Dunst, Minami Takayama and Rei Sakuma
Sản xuất: Studio Ghibli
Thể loại: Anime
Quốc gia: Japan
Nam phat hành: 1989
Thời lượng: 102 phút





Bộ phim bat dau ngay thời diem Kiki - mot co bé phu thuy thực tập - du tuổi để roi gia đình và den mot nơi khác, noi co phải sống mot minh trong vòng mot nam để co co thể tro thanh một phu thuy thực thụ. Kiki khoi hanh vào buổi toi cung với sự co vu của mọi người, sử dung chiec chổi của mẹ cô, va mang theo chú meo Jiji cùng một so thu cần thiết. Trai voi sự dự bao thoi tiết của đài radio, toi hom đó trời mua kha to, Kiki va Jiji phai tru trong một chiec xe lửa. Sáng hôm sau, Kiki va Jiji tỉnh dậy, phát hien minh đang nằm trong cho để cỏ danh cho bò ăn. Ho roi toa tàu va bat đầu cuộc hanh trinh tìm kiếm nơi ở.



Kiki chọn thanh pho Koriko, một noi ma cô co the nhìn thấy biển, mot thanh phố có chiec thap đồng hồ cổ kính. Nhung voi một co be 13 tuoi cung với chiếc choi bay khắp thanh pho thì kho ma có thể tim duoc một chỗ de tru thân. Dĩ nhiên, Kiki hoan toan cô đơn, lo lắng, va cam thấy hơi mệt mỏi.

Khi đang chạy xe, Tombo - mot cậu be bang tuổi Kiki da thay cô bay tren troi và rất thích thú. Cau da cứu Kiki thoat khoi một vụ rac roi với cảnh sát, nhưng luc nay Kiki vẫn chua co cảm tình voi cau bé. Trời dan dan tối, Kiki khá mệt, co dung trên một con duong và nhìn xuống, nói voi Jiji rằng "Sáng mai chung ta sẽ tim cho ở mới!".



Đúng lúc đó, mot nguoi phụ nu ten Osono - chu cua một tiệm banh ven đường hớt hai chay ra, gọi voi theo một nguoi phu nữ da di khuất. Cùng voi chiec chổi của mình, Kiki da giup bà Osono tra lai món đồ ma vi khách kia để quên. Ba Osono cảm giác Kiki that là phi thường, nhưng cung rat đáng yêu. Vi vay bà quyết dinh cho cô ở nho tren căn phòng còn trống.


Mọi việc se xay ra như the nao ? Liệu sau này cậu có thu hút được sự chú ý của Kiki? Kiki sẽ tro thanh một phu thuy thật sự? Rất nhiều câu hỏi được đặt ra, và đang chờ bạn tìm hiểu câu trả lời trong bộ phim này.




Code: Format : Matroska
Format phiên bản : phiên bản 2
File size : 810 MiB
Duration : 1h 44mn
Overall bit rate : 1 086 Kbps
Encoded date : UTC 2012-05-08 13:05:29
Writing application : mkvmerge v5.2.1 ('A Far Off Place') built on Jan 2 2012 23:21:10
Writing library : libebml v1.2.3 + libmatroska v1.3.0
Attachment : Yes / Yes / Yes / Yes / Yes / Yes

Video
ID : 1
Format : AVC
Format/Info : Advanced Video Codec
Format profile : [email protected]
Format settings, CABAC : Yes
Format settings, ReFrames : 8 frames
Muxing mode : Header stripping
Codec ID : V_MPEG4/ISO/AVC
Duration : 1h 44mn
Bit rate : 871 Kbps
Width : 1 280 pixels
Height : 720 pixels
Display aspect ratio : 16:9
Frame rate mode : Constant
Frame rate : 23.976 fps
Color space : YUV
Chroma subsampling : 4:2:0
Bit depth : 8 bits
Scan type : Progressive
Bits/(Pixel*Frame) : 0.039
Stream size : 627 MiB (77%)
Writing library : x264 core 114 r1924 08d04a4
Default : Yes
Forced : No

Audio
ID : 2
Format : AC-3
Format/Info : Audio Coding 3
Mode extension : CM (complete main)
Format settings, Endianness : Big
Muxing mode : Header stripping
Codec ID : A_AC3
Duration : 1h 44mn
Bit rate mode : Constant
Bit rate : 224 Kbps
Channel(s) : 2 channels
Channel positions : Front: L R
Sampling rate : 48.0 KHz
Bit depth : 16 bits
Compression mode : Lossy
Delay relative to video : 12ms
Stream size : 167 MiB (21%)
Title : Japanese (AC3, 224kbps)
Language : Japanese
Default : No
Forced : No

Text #1
ID : 3
Format : UTF-8
Codec ID : S_TEXT/UTF8
Codec ID/Info : UTF-8 Plain Text
Title : English (SRT)
Language : English
Default : No
Forced : No

Text #2
ID : 4
Format : ASS
Codec ID : S_TEXT/ASS
Codec ID/Info : Advanced Sub Station Alpha
Compression mode : Lossless
Title : English (ASS, niizk)
Language : English
Default : No
Forced : No










UpVN
Bấm vào đây để đăng nhập và xem link!


Vietsub chuẩn: Bấm vào đây để đăng nhập và xem link!


Chúc các bạn xem phim vui vẻ

Lưu ý khi sử dụng

- Gặp Link download hỏng, hãy đăng trả lời (yêu cầu link download mới), Các MOD sẽ cập nhật link sớm nhất
- Tìm kiếm trước khi đăng bài mới

Chủ đề liên quan:
By hoahongcogai686
Kết nối đề xuất: