By thantinhyeueros2225
#570511 Xuân Hinh Ken Chồng 2012




Nhân dip Tet Nhâm Thìn năm nay, Xuan Hinh tạm gác cac du án chèo de tai xuất lang hai với DVD Xuan Hinh kén chong do Công ty Nghe nhin Thăng Long san xuat và phát hành. Nét doc dao trong các tieu pham này là Xuan Hinh sẽ giả gai toan tập để làm "Thị Hen ken chồng" và đi "Bắt den dai gia".


Nối tiep trao lưu "giả gái" đang no ro trong làng giai tri Việt trong thoi gian gần đây, Xuan Hinh sẽ mang den nhung bất ngờ thu vi đối với nhung ai dành tình cam cho danh hài dat Bac này. Dù da qua tuổi 50, "da dẻ da bat đầu nhăn nheo het cả rồi" nhung Xuan Hinh nói vui, "vì khan gia vẫn còn yeu men nên phải cố thôi".


Trong "Bắt den dai gia", cây hai ky cựu hóa than thanh một cô gai kieu diễm dùng nhan sac của mình de lua đảo các dai gia có "máu dê". Dưới ngoi but thâm thúy va sac sảo của dao dien Doãn Hoàng Giang, sau nhung tran cười sảng khoái, khan gia sẽ nhan ra những vấn de nong trong xã hoi hien đại.


Không chi bat nhịp hơi tho cuoc sống đương đại, trong Xuan Hinh kén chồng, nguoi xem được trở ve voi dòng chảy dan gian qua tieu pham phóng tac tu câu chuyện Nghêu, Sò, Ốc, Hến. Ben canh vai nữ chinh Thi Hến do Xuan Hinh đảm nhận, nhung guong mặt quen thuoc cua làng hài nhu Thanh Thanh Hiền, Thu Hằng, Phú Đôn, Minh Nguyệt, Tien Minh… cũng sẽ hoi ngo và góp them tieng cười ngày xuân.

Code: General
Complete name : C:\Download\Xuan hinh ken chong - dvd\xuan hinh 2011\VIDEO_TS\VTS_01_1.VOB
Format : MPEG-PS
File size : 1 024 MiB
Duration : 18mn 39s
Overall bit rate : 7 672 Kbps

Video
ID : 224 (0xE0)
Format : MPEG Video
Format phiên bản : phiên bản 2
Format profile : [email protected]
Format settings, BVOP : Yes
Format settings, Matrix : Default
Duration : 18mn 39s
Bit rate mode : Variable
Bit rate : 5 983 Kbps
Nominal bit rate : 8 000 Kbps
Width : 720 pixels
Height : 576 pixels
Display aspect ratio : 4:3
Frame rate : 25.000 fps
Standard : PAL
Color space : YUV
Chroma subsampling : 4:2:0
Bit depth : 8 bits
Scan type : Interlaced
Scan order : Top Field First
Compression mode : Lossy
Bits/(Pixel*Frame) : 0.577
Stream size : 798 MiB (78%)

Audio
ID : 189 (0xBD)-160 (0xA0)
Format : PCM
Format settings, Endianness : Big
Format settings, Sign : Signed
Muxing mode : DVD-Video
Duration : 18mn 39s
Bit rate mode : Constant
Bit rate : 1 536 Kbps
Channel(s) : 2 channels
Channel positions : Front: L R
Sampling rate : 48.0 KHz
Bit depth : 16 bits
Stream size : 205 MiB (20%)

RELEASE DATE..: 12/28/2011 Bấm vào đây để đăng nhập và xem link! Bấm vào đây để đăng nhập và xem link!
Bấm vào đây để đăng nhập và xem link! Bấm vào đây để đăng nhập và xem link!
Bấm vào đây để đăng nhập và xem link! Bấm vào đây để đăng nhập và xem link!
Bấm vào đây để đăng nhập và xem link! Bấm vào đây để đăng nhập và xem link!
Bấm vào đây để đăng nhập và xem link! Bấm vào đây để đăng nhập và xem link!

Code: Bấm vào đây để đăng nhập và xem link!

Lưu ý khi sử dụng

- Gặp Link download hỏng, hãy đăng trả lời (yêu cầu link download mới), Các MOD sẽ cập nhật link sớm nhất
- Tìm kiếm trước khi đăng bài mới

Chủ đề liên quan:
By Canning
By Curtiss
Kết nối đề xuất: