By anhvanonline24_24_t
#568794




Bấm vào đây để đăng nhập và xem link!

Đạo diễn: Steven Spielberg

Diễn viên: Leonardo DiCaprio, Tom Hanks

Hãng sản xuất: DreamWorks

Thể loại: Tieu su - Tội pham - Ly kỳ - Hinh sự

Quốc gia: Mỹ - Khác

Thời lượng: 140 phút

Năm phát hành: 2002


Dua theo câu chuyện co that về một "thiên tài" co mot không hai, chuyen gia mạo và lua dao thành công nhat trong lịch sử nước Mỹ. Do la Frank William Abagnale, kẻ chi trong 3 năm tu 1964 đến 1967 da gia danh phi cong hang hàng không PanAm bay chua hon hai triệu dặm, biến thanh bac sĩ trưởng khoa nhi benh vien Georgia, rồi tro ly công tố vien bang Lousiana. Kẻ da moi hàng triệu do la bằng ngân phieu gia từ các ngan hang khắp 50 bang nuoc Mỹ và 26 quoc gia trên thế giới. Tat ca các "kỳ tích" trên deu duoc Frank thực hien thanh công khi chua tron 18 tuổi!




Trời phú cho Frank mot bo óc trí tuệ, một cap mat biết quan sát, một biet tai ứng biến linh hoat và đôi ban tay khéo léo gioi bat chước, lại duoc di truyền từ bo su láu lỉnh va giao hoạt hơn người. Như mot chu chuột rơi tom vao thùng bơ, cau quay tung tất ca va Frank không nhung da "thoát hiểm" ma con kiếm được rat nhieu tiền với nhung tro giả danh lua dao ở cái tuoi con ham đọc truyen tranh! Trình độ lua dao của Frank da dat đến đỉnh cao voi khả năng gia mao chữ ký, gia mao giấy tờ siêu hạng. O vao tuổi 17, cau di tiên phong tro thanh tội phạm lua dao ngân hàng sieu hang nhất trong lich su của nước My voi việc sản xuat hang loạt séc giả, tổng gia tri lên đến hang trieu USD.




Những hanh dong ngông cuồng cua cau luôn có su theo sát của nhan vien FBI Carl Hanratty (Tom Hanks). Là nguoi dau tiên phát hien ra hành động lua dao của Frank, Carl cung là người duy nhat cần mẫn bam duoi theo Frank trong tung vụ phạm tội. Tuy nhien Frank luôn đi truoc Carl một bước khien cho cuộc rượt duoi duong như không co diem dừng...


Code:





Format : Matroska
Format phiên bản : phiên bản 2
File size : 1.91 GiB
Duration : 2h 20mn
Overall bit rate : 1 935 Kbps
Encoded date : UTC 2012-12-30 22:08:26
Writing application : mkvmerge v5.8.0 ('No Sleep / Pillow') built on Sep 2 2012 15:37:04
Writing library : libebml v1.2.3 + libmatroska v1.3.0

Video
ID : 1
Format : AVC
Format/Info : Advanced Video Codec
Format profile : [email protected]
Format settings, CABAC : Yes
Format settings, ReFrames : 4 frames
Codec ID : V_MPEG4/ISO/AVC
Duration : 2h 20mn
Bit rate : 1 550 Kbps
Width : 1 920 pixels
Height : 1 080 pixels
Display aspect ratio : 16:9
Frame rate : 25.000 fps
Color space : YUV
Chroma subsampling : 4:2:0
Bit depth : 8 bits
Scan type : Progressive
Bits/(Pixel*Frame) : 0.030
Stream size : 1.49 GiB (78%)
Writing library : x264 core 129 r2230 1cffe9f
Encoding settings : cabac=1 / ref=3 / deblock=1:0:0 / analyse=0x3:0x113 / me=hex / subme=7 / psy=1 / psy_rd=1.00:0.00 / mixed_ref=1 / me_range=16 / chroma_me=1 / trellis=1 / 8x8dct=1 / cqm=0 / deadzone=21,11 / fast_pskip=1 / chroma_qp_offset=-2 / threads=6 / lookahead_threads=1 / sliced_threads=0 / nr=0 / decimate=1 / interlaced=0 / bluray_compat=0 / constrained_intra=0 / bframes=3 / b_pyramid=2 / b_adapt=1 / b_bias=0 / direct=1 / weightb=1 / open_gop=0 / weightp=2 / keyint=250 / keyint_min=25 / scenecut=40 / intra_refresh=0 / rc_lookahead=40 / rc=2pass / mbtree=1 / bitrate=1550 / ratetol=1.0 / qcomp=0.60 / qpmin=0 / qpmax=69 / qpstep=4 / cplxblur=20.0 / qblur=0.5 / ip_ratio=1.40 / aq=1:1.00
Default : Yes
Forced : No

Audio
ID : 2
Format : AC-3
Format/Info : Audio Coding 3
Mode extension : CM (complete main)
Codec ID : A_AC3
Duration : 2h 20mn
Bit rate mode : Constant
Bit rate : 384 Kbps
Channel(s) : 2 channels
Channel positions : Front: L R
Sampling rate : 44.1 KHz
Bit depth : 16 bits
Compression mode : Lossy
Stream size : 387 MiB (20%)
Default : Yes
Forced : No









Project Vietsub by KSTE

Translators: falinter, kittenshocks, cu_hip

Edit & Typeset: cu_hip

Encoder: Lỳ.kst

Banner: meepham

Upload: Lỳ.kst & KSTU

Free download at kst.vn



Code: http://www.mediafire.com/?4qb1ctiz211jq
knam456 - vnz hoặc
Code: http://www.mediafire.com/?x2gmd858ma6vi
kst
Bấm vào đây để đăng nhập và xem link!

kst


Lưu ý khi sử dụng

- Gặp Link download hỏng, hãy đăng trả lời (yêu cầu link download mới), Các MOD sẽ cập nhật link sớm nhất
- Tìm kiếm trước khi đăng bài mới

Chủ đề liên quan:
Hình đại diện của thành viên
By tctuvan
By Scandleah
#568912 phim nay luon nằm trong top cua mình,phim này,nghệ si duong cầm,với cái phim ma ông đó giet thang ngủ với vợ nó,sau do vao tù,rồi dạy hoc trong đó,cuối cùng vượt ngục
By nguyenvanphuocloc
#568952 Phim cuoi ban nói là The Shawshank Redemption . Phim nay là số 1 tren IMDB mà lại
phim nay luon nằm trong top cua mình,phim này,nghệ si duong cầm,với cái phim ma ông đó giet thang ngủ với vợ nó,sau do vao tù,rồi dạy hoc trong đó,cuối cùng vuot nguc
Kết nối đề xuất: