By nhung_koj
#568204





Bấm vào đây để đăng nhập và xem link!

Thể loại: Tình cảm, học trò

Đạo diễn: Joe Nussbaum

Diễn viên: Aimee Teegarden ... Nova Prescott

Thomas McDonell ... Jesse Richter

DeVaughn Nixon ... Tyler Barso

Danielle Campbell ... Simone Daniels

Yin Chang ... Mei Kwan

Nolan A. Sotillo . . . . Lucas Arnaz

Nicholas Braun ..... Lloyd Taylor

Quốc gia: USA

Ngôn ngữ: English

Thời lượng: 104 phút

Năm phát hành: 29/04/2011


1 cau chuyen nhẹ nhàng, tinh cam xoay quanh cac cap bạn trẻ ve buoi tiệc Prom sắp tới. Nam cuoi cấp, đằng sau nhung dự định ve thi ĐH, những con duong tương lai truoc mat là những y dinh hẹn hò cho buoi tiệc cuối cấp, cho viec luu lại những khoanh khac đẹp nhất cua tuoi học trò ma 1 khi đã di qua rồi không bao gio có thể niu giu lại. Là 1 su hàn gắn, la 1 tình bạn đẹp, la 1 khởi đầu mới, la nhung rung động nhe nhang cho một tinh cam mới chớm nở, là buoc dot phá cuối cung cho 1 cái toi nhieu năm trời song trong cô độc va mo nhạt...Tất cả chi the hiện xoay quanh bua tiệc Prom - 1 bua tiec mà bất cu hoc sinh nào cung mo ước...
Code: Format : Matroska
Format phiên bản : phiên bản 4 / phiên bản 2
File size : 2.02 GiB
Duration : 1h 44mn
Overall bit rate : 2 785 Kbps
Encoded date : UTC 2010-02-22 21:41:31
Writing application : mkvmerge v5.9.0 ('On The Loose') built on Dec 9 2012 15:37:01
Writing library : libebml v1.3.0 + libmatroska v1.4.0

Video
ID : 1
Format : AVC
Format/Info : Advanced Video Codec
Format profile : [email protected]
Format settings, CABAC : Yes
Format settings, ReFrames : 4 frames
Codec ID : V_MPEG4/ISO/AVC
Duration : 1h 44mn
Bit rate : 2 400 Kbps
Width : 1 280 pixels
Height : 720 pixels
Display aspect ratio : 16:9
Frame rate : 25.000 fps
Color space : YUV
Chroma subsampling : 4:2:0
Bit depth : 8 bits
Scan type : Progressive
Bits/(Pixel*Frame) : 0.104
Stream size : 1.70 GiB (84%)
Writing library : x264 core 129 r2230 1cffe9f
Encoding settings : cabac=1 / ref=3 / deblock=1:0:0 / analyse=0x3:0x113 / me=hex / subme=7 / psy=1 / psy_rd=1.00:0.00 / mixed_ref=1 / me_range=16 / chroma_me=1 / trellis=2 / 8x8dct=1 / cqm=0 / deadzone=21,11 / fast_pskip=1 / chroma_qp_offset=-2 / threads=6 / lookahead_threads=1 / sliced_threads=0 / nr=0 / decimate=1 / interlaced=0 / bluray_compat=0 / constrained_intra=0 / bframes=3 / b_pyramid=2 / b_adapt=1 / b_bias=0 / direct=1 / weightb=1 / open_gop=0 / weightp=2 / keyint=250 / keyint_min=25 / scenecut=40 / intra_refresh=0 / rc_lookahead=40 / rc=2pass / mbtree=1 / bitrate=2400 / ratetol=1.0 / qcomp=0.60 / qpmin=0 / qpmax=69 / qpstep=4 / cplxblur=20.0 / qblur=0.5 / ip_ratio=1.40 / aq=1:1.00
Default : Yes
Forced : No

Audio
ID : 2
Format : AC-3
Format/Info : Audio Coding 3
Mode extension : CM (complete main)
Codec ID : A_AC3
Duration : 1h 44mn
Bit rate mode : Constant
Bit rate : 384 Kbps
Channel(s) : 2 channels
Channel positions : Front: L R
Sampling rate : 44.1 KHz
Bit depth : 16 bits
Compression mode : Lossy
Stream size : 286 MiB (14%)
Default : Yes
Forced : No




Leader .... ariel143

Dịch phim ... linhcau, dana.iu

Chỉnh sửa ... ariel143

Ghép phụ đề ... Lỳ.kst

Typesetting ..... cu_hip

Đăng tải ... KSTU

Chỉnh/thiết kế Poster ... Hss2105








Bấm vào đây để đăng nhập và xem link!
Bấm vào đây để đăng nhập và xem link!
Bấm vào đây để đăng nhập và xem link!

Lưu ý khi sử dụng

- Gặp Link download hỏng, hãy đăng trả lời (yêu cầu link download mới), Các MOD sẽ cập nhật link sớm nhất
- Tìm kiếm trước khi đăng bài mới

Chủ đề liên quan:
Kết nối đề xuất: