By huonguyen_mk
#563324

Lời giới thiệu

Harry Potter là tên của bộ truyện (gồm bảy phần) của nữ nhà văn J. K. Rowling viết về cậu bé thiếu niên Harry Potter. Câu chuyện phần lớn diễn ra tại Trường Phù thủy và Pháp sư Hogwarts, một ngôi trường pháp thuật, và tập trung vào cuộc chiến của Harry Potter chống lại một phù thủy hắc ám là Chúa tể Voldemort, người vừa giết cha mẹ cậu trong tham vọng làm chủ thế giới phù thủy. Harry Potter vừa được dựng thành phim rất thành công bởi hãng Warner Bros.

Harry Potter and the Sorcerer's Stone (2001) - Harry Potter và Hòn Đá Phù Thủy




Cậu bé Harry Potter được sống sót sau một trận quyết tử giữa Voldermort - chúa tể hắc ám và gia đình cậu. Cha mẹ của Harry đều hy sinh và em được đưa đến nhà của người dì. Mười một năm trôi qua, bí mật (an ninh) về thân thế và cái chết của cha mẹ em bị giấu kín, Harry lớn lên trong sự hành hạ của gia đình dì dượng cho đến ngày em phát hiện ra mình là một phù thuỷ, mà lại là phù thuỷ nổi tiếng với vết sẹo trên tráng. Harry Potter bước vào năm học đầu tiên ở trường Hogwarts, kết bạn với Ron và Hermione. Em cũng nhận ra mình từng thoát chết dưới bàn tay của kẻ tàn ác nhất thế giới phù thuỷ và làm hắn mất hết sức mạnh. Giờ đây, kẻ độc ác đấy đang tìm cách hồi sinh, trở lại và tiêu diệt Harry Potter.

Bấm vào đây để đăng nhập và xem link!

Đạo diễn: Chris Columbus

Diễn viên: Daniel Radcliffe, Rupert Grint, Emma Watson, John Cleese, Robbie Coltrane

Nhà sản xuất: Warner Bros

Thể loại: Viễn tưởng, Thần Thoại

Độ dài: 135 phút

Quốc gia: Anh

Năm sản xuất: 2001

Translators: los_angeles_20, poko_poko5000, tunbi26, sieunhantaithe

Editor & Typesetter: sieunhantaithe, adam77

Encoder: los_angeles_20, minzthu

Uploader: KSTU - Krfilm.net

Code: Format : AVI
Format/Info : Audio Video Interleave
File size : 1.08 GiB
Duration : 2h 32mn
Overall bit rate : 1 017 Kbps
Writing application : Lavf52.0.0
Writing library : VirtualDub build 29393/release

Video
ID : 0
Format : AVC
Format/Info : Advanced Video Codec
Format profile : [email protected]
Format settings, CABAC : Yes
Format settings, ReFrames : 1 frame
Codec ID : H264
Duration : 2h 32mn
Bit rate : 880 Kbps
Width : 1 280 pixels
Height : 528 pixels
Display aspect ratio : 2.40:1
Frame rate : 23.976 fps
Color space : YUV
Chroma subsampling : 4:2:0
Bit depth : 8 bits
Scan type : Progressive
Bits/(Pixel*Frame) : 0.054
Stream size : 959 MiB (86%)
Writing library : x264 core 68 r1195bm 5d75a9b
Encoding settings : cabac=1 / ref=1 / deblock=1:0:0 / analyse=0x3:0x13 / me=umh / subme=7 / psy_rd=0.0:0.0 / mixed_ref=0 / me_range=16 / chroma_me=1 / trellis=1 / 8x8dct=1 / cqm=0 / deadzone=21,11 / chroma_qp_offset=0 / threads=1 / thread_queue=1 / nr=0 / decimate=1 / mbaff=0 / bframes=0 / keyint=250 / keyint_min=25 / scenecut=40 / rc=crf / crf=26.0 / qcomp=0.60 / qpmin=10 / qpmax=51 / qpstep=4 / ip_ratio=1.40 / aq=2:1.00

Audio
ID : 1
Format : MPEG Audio
Format phiên bản : phiên bản 1
Format profile : Layer 3
Mode : Joint stereo
Mode extension : MS Stereo
Codec ID : 55
Codec ID/Hint : MP3
Duration : 2h 32mn
Bit rate mode : Constant
Bit rate : 128 Kbps
Channel(s) : 2 channels
Sampling rate : 44.1 KHz
Compression mode : Lossy
Stream size : 139 MiB (13%)
Alignment : Split accross interleaves
Interleave, duration : 42 ms (1.00 video frame)
Interleave, preload duration : 500 ms








Code: http://www.mediafire.com/?2ldd325o277pij2
http://www.mediafire.com/?y8sa127jg71jnq7
http://www.mediafire.com/?9f03dfcopcfp1b2
http://www.mediafire.com/?908lrigfqton6s0
http://www.mediafire.com/?2ldc0a4ez4o7hi8
http://www.mediafire.com/?cbkjcq33iakhnz8
http://www.mediafire.com/?447x236jx0gj92e
http://www.mediafire.com/?hcu2d13nkas3nru
Reup By Windy_yeu
Harry Potter and the Chamber of Secrets (2002) - Harry Potter và Phòng Chứa Bí Mật




Harry Potter nghỉ hè tại gia đình dì dượng Dursley trước khi nhập học năm thứ hai tại Học viện Pháp thuật và Ma thuật Hogwarts. Gia tinh Dobby xuất hiện bất ngờ và gây nhiều rắc rối, dẫn đến chuyện Harry bị khóa kín trong căn phòng trên lầu. Harry được giải thoát bởi bạn thân Ron Weasley và trải qua những ngày còn lại của kỳ nghỉ ở nhà của Ron, Trang trại Hang Sóc.

Harry, Ron và Hermione bắt đầu học năm thứ hai tại trường Hogwarts. Họ có một giáo sư môn Phòng vệ Chống Nghệ thuật Hắc ám mới, Gilderoy Lockhart. Mặc dù không gây được ấn tượng với Harry và Ron, thầy Lockhart chiếm được tình cảm của các học sinh nữ như Hermione bởi sự đẹp trai và các câu truyện phiêu lưu màu sắc.

Sự căng thẳng lên đến đỉnh điểm khi cô em gái Ginny Weasley của Ron bị bắt vào Phòng chứa bí mật. Harry và Ron tìm ra lối vào nhưng bị tấn công bởi thầy Lockhart. Lockhart bị mất trí nhớ và lối vào bị phá, chỉ có một mình Harry có thể đến được Phòng chứa bí mật.

Tại đây Harry phải giải cứu Ginny khỏi sự điều khiển của Chúa tể Hắc Ám Voldemort, trong hình hài của Tom Riddle, ký ức lúc Voldemort còn là một học sinh của Hogwart. Harry chạm trán Tử xà Basilisk con quái vật trong Phòng chứa bí mật (an ninh) tuân theo lệnh của Tom Riddle. Nhờ sự giúp đỡ của con Phượng hoàng Fawkes của thầy Dumblerdore, Harry giết Basilisk bằng thanh gươm Gryffindor và phá hủy Tom Riddle bằng chiếc nanh mãng xà đâm vào tay qua cuốn nhật ký chết người mà Lucius Malfoy vừa cố tình thả vào cặp của Ginny Weasley vào hồi đầu năm học.

Bấm vào đây để đăng nhập và xem link!

Diễn viên: Daniel Radcliffe, Sean Biggerstaff, David Bradley, John Cleese, Robbie Coltrane, Alfie Enoch, Kenneth Branagh, Miriam Margolyes, Mark Williams, Jason Isaacs

Đạo diễn: Chris Columbus

Translators: minzthu, poko_poko5000, tunbi26, adam77, aries06

Editor: adam77, minzthu, sieunhantaithe

Typesetter & Encoder: minzthu

Uploader: KSTU - Krfilm.net


Code: Format : AVI
Format/Info : Audio Video Interleave
File size : 1.25 GiB
Duration : 2h 40mn
Overall bit rate : 1 109 Kbps
Writing application : Lavf52.31.0
Writing library : VirtualDub build 29393/release

Video
ID : 0
Format : AVC
Format/Info : Advanced Video Codec
Format profile : [email protected]
Format settings, CABAC : Yes
Format settings, ReFrames : 1 frame
Codec ID : H264
Duration : 2h 40mn
Bit rate : 969 Kbps
Width : 1 280 pixels
Height : 528 pixels
Display aspect ratio : 2.40:1
Frame rate : 29.970 fps
Color space : YUV
Chroma subsampling : 4:2:0
Bit depth : 8 bits
Scan type : Progressive
Bits/(Pixel*Frame) : 0.048
Stream size : 1.09 GiB (87%)
Writing library : x264 core 68 r1195bm 5d75a9b
Encoding settings : cabac=1 / ref=1 / deblock=1:0:0 / analyse=0x3:0x13 / me=umh / subme=7 / psy_rd=0.0:0.0 / mixed_ref=0 / me_range=16 / chroma_me=1 / trellis=1 / 8x8dct=1 / cqm=0 / deadzone=21,11 / chroma_qp_offset=0 / threads=1 / thread_queue=1 / nr=0 / decimate=1 / mbaff=0 / bframes=0 / keyint=250 / keyint_min=25 / scenecut=40 / rc=crf / crf=26.0 / qcomp=0.60 / qpmin=10 / qpmax=51 / qpstep=4 / ip_ratio=1.40 / aq=2:1.00

Audio
ID : 1
Format : MPEG Audio
Format phiên bản : phiên bản 1
Format profile : Layer 3
Mode : Joint stereo
Mode extension : MS Stereo
Codec ID : 55
Codec ID/Hint : MP3
Duration : 2h 40mn
Bit rate mode : Constant
Bit rate : 128 Kbps
Channel(s) : 2 channels
Sampling rate : 44.1 KHz
Compression mode : Lossy
Stream size : 147 MiB (12%)






Bấm vào đây để đăng nhập và xem link!
Bấm vào đây để đăng nhập và xem link!
Bấm vào đây để đăng nhập và xem link!
Harry Potter and the Prisoner of Azkaban (2004) - Harry Potter và Tên Tù Nhân Ngục Azkaban




Mùa hè trước khi Harry bước vào năm 3 ở trường Hogwarts, trong cơn nóng giận không kềm chế được, Harry vừa làm phép với bà cô khó chịu và cậu sợ hãi bỏ trốn khỏi nhà trên chuyến xe bus hiệp sĩ. tại đây, cậu nghe nói về Sirius Black, tên phù thuỷ trốn khỏi ngục Azkaban. Nhưng Harry không ngờ, Sirius Black trốn ngục là để truy tìm cậu..

Bấm vào đây để đăng nhập và xem link!

Đạo diễn: Alfonso Cuarón

Diễn viên: Daniel Radcliffe, Rupert Grint, Emma Watson, Maggie Smith, Alan Rickman, Robbie Coltrane, David Bradley

Nhà sản xuất: Warner Bros

Thể loại: Viễn tưởng, Thần Thoại

Độ dài: 120 phút

Quốc gia: Anh

Năm sản xuất: 2004

Translator: Ly4ever, aries06, poko_poko5000, windtalker

Editor: adam77, minzthu

Typesetter: minzthu

Encoder: minzthu, adam77, los_angeles_20

Uploader: KSTU - Krfilm.net


Code: Format : AVI
Format/Info : Audio Video Interleave
File size : 1.34 GiB
Duration : 2h 21mn
Overall bit rate : 1 353 Kbps
Writing application : Lavf52.31.0
Writing library : VirtualDub build 29393/release

Video
ID : 0
Format : AVC
Format/Info : Advanced Video Codec
Format profile : [email protected]
Format settings, CABAC : Yes
Format settings, ReFrames : 1 frame
Codec ID : H264
Duration : 2h 21mn
Bit rate : 1 214 Kbps
Width : 1 280 pixels
Height : 528 pixels
Display aspect ratio : 2.40:1
Frame rate : 29.970 fps
Color space : YUV
Chroma subsampling : 4:2:0
Bit depth : 8 bits
Scan type : Progressive
Bits/(Pixel*Frame) : 0.060
Stream size : 1.20 GiB (90%)
Writing library : x264 core 68 r1195bm 5d75a9b
Encoding settings : cabac=1 / ref=1 / deblock=1:0:0 / analyse=0x3:0x13 / me=umh / subme=7 / psy_rd=0.0:0.0 / mixed_ref=0 / me_range=16 / chroma_me=1 / trellis=1 / 8x8dct=1 / cqm=0 / deadzone=21,11 / chroma_qp_offset=0 / threads=1 / thread_queue=1 / nr=0 / decimate=1 / mbaff=0 / bframes=0 / keyint=250 / keyint_min=25 / scenecut=40 / rc=crf / crf=26.0 / qcomp=0.60 / qpmin=10 / qpmax=51 / qpstep=4 / ip_ratio=1.40 / aq=2:1.00

Audio
ID : 1
Format : MPEG Audio
Format phiên bản : phiên bản 1
Format profile : Layer 3
Mode : Joint stereo
Mode extension : MS Stereo
Codec ID : 55
Codec ID/Hint : MP3
Duration : 2h 21mn
Bit rate mode : Constant
Bit rate : 128 Kbps
Channel(s) : 2 channels
Sampling rate : 44.1 KHz
Compression mode : Lossy
Stream size : 130 MiB (9%)
Alignment : Split accross interleaves
Interleave, duration : 33 ms (1.00 video frame)
Interleave, preload duration : 500 ms
Writing library : LAME3.98.2









Bấm vào đây để đăng nhập và xem link!
Bấm vào đây để đăng nhập và xem link!
Bấm vào đây để đăng nhập và xem link!
Harry Potter and the Goblet of Fire (2005) - Harry Potter và Chiếc cốc lửa



Cuộc thi đấu Tam pháp thuật diễn ra giữa ba trường phù thuỷ nổi tiếng thế giới của Bungary, Pháp và Anh. Tại vòng thi đấu Tam Pháp Thuật, Harry Potter bất ngờ được Chiếc cốc lửa chọn là thí sinh thứ tư, một trường hợp ngoại lệ hy hữu vì thứ nhất: mỗi trường chỉ có một người được chọn, và thứ hai: cậu bé chưa đủ tuổi để tham gia. Cuộc thi đấu khá cam go và nguy hiểm chết người. Trong cuộc thi cuối cùng trong mê cung, Harry và người bạn thi đấu cùng trường Cedric vừa phải đối mặt với chúa tể Hắc ám Voldemort

Bấm vào đây để đăng nhập và xem link!

Đạo diễn: Mike Newell

Diễn viên: Daniel Radcliffe, Emma Watson, Rupert Grint, Ralph Fiennes, Miranda Richardson, Gary Oldman, Mark Williams, James Phelps, Oliver Phelps, Bonnie Wright, Tom Felton

Nhà sản xuất: Warner Bros

Thể loại: Phiêu lưu, Viễn tưởng

Độ dài: 157 phút

Năm sản xuất: 2005

Translator: minzthu

Editor: adam77

Typesetter & Encoder: minzthu

Uploader: KSTU - Krfilm.net


Code: Format : AVI
Format/Info : Audio Video Interleave
File size : 1.28 GiB
Duration : 2h 37mn
Overall bit rate : 1 166 Kbps
Writing application : Lavf52.31.0
Writing library : VirtualDub build 29393/release

Video
ID : 0
Format : AVC
Format/Info : Advanced Video Codec
Format profile : [email protected]
Format settings, CABAC : Yes
Format settings, ReFrames : 1 frame
Codec ID : H264
Duration : 2h 37mn
Bit rate : 1 026 Kbps
Width : 1 280 pixels
Height : 528 pixels
Display aspect ratio : 2.40:1
Frame rate : 29.970 fps
Color space : YUV
Chroma subsampling : 4:2:0
Bit depth : 8 bits
Scan type : Progressive
Bits/(Pixel*Frame) : 0.051
Stream size : 1.13 GiB (88%)
Writing library : x264 core 68 r1195bm 5d75a9b
Encoding settings : cabac=1 / ref=1 / deblock=1:0:0 / analyse=0x3:0x13 / me=umh / subme=7 / psy_rd=0.0:0.0 / mixed_ref=0 / me_range=16 / chroma_me=1 / trellis=1 / 8x8dct=1 / cqm=0 / deadzone=21,11 / chroma_qp_offset=0 / threads=1 / thread_queue=1 / nr=0 / decimate=1 / mbaff=0 / bframes=0 / keyint=250 / keyint_min=25 / scenecut=40 / rc=crf / crf=26.0 / qcomp=0.60 / qpmin=10 / qpmax=51 / qpstep=4 / ip_ratio=1.40 / aq=2:1.00

Audio
ID : 1
Format : MPEG Audio
Format phiên bản : phiên bản 1
Format profile : Layer 3
Mode : Joint stereo
Mode extension : MS Stereo









Bấm vào đây để đăng nhập và xem link!
Bấm vào đây để đăng nhập và xem link!
Bấm vào đây để đăng nhập và xem link!
Harry Potter and the Order of the Phoenix (2007) – Harry Potter và Hội Phượng Hoàng


Câu chuyện xoay quanh sự tranh giành quyền lực giữa Bộ Pháp Thuật và trường Hogwarts, sự sợ hãi mất uy thế của ông Bộ trưởng Bộ Pháp thuật Cornelius Fudge, và những mánh lưới đáng sợ của mụ Dolores Umbridge, giáo viên dạy môn Phòng chống nghệ thuật Hắc Ám do Bộ Pháp Thuật cử đến trường Hogwarts, để chiếm quyền điều hành ngôi trường phù thuỷ từ tay cụ Dumbledore. Bộ phim còn xoáy sâu vào thể loại phim tình cảm học trò. Đó là câu chuyện về những cô cậu học trò nổi loạn tìm cách chống lại sự độc đoán của bà cô giáo Dolores Umbridge mà đỉnh cao là trò phá bĩnh của hai anh em sinh đôi George và Fred. Chuyện tình cảm của Harry Potter cũng được nhấn mạnh, với sự xuất hiện của cô bé Luna Lovegood, những ánh mắt lén lút nhìn theo Harry của cô bé Ginny và đặc biệt là nụ hôn đầu đời của Harry Potter và cô bạn gái Cho Chang. Trên hết là tâm trạng của Harry Potter khi cậu bé cảm giác mình bị bỏ rơi bởi tất cả bạn bè, người thân, thầy cô và cuối cùng chịu đựng một nỗi đau mất mát quá lớn...

Bấm vào đây để đăng nhập và xem link!

Đạo diễn: David Yates

Diễn viên: Daniel Radcliffe, Emma Watson, Rupert Grint, Katie Leung, Michael Gambon, Ralph Fiennes, Gary Oldman, Helena Bonham Carter, Imelda Staunton, Evanna Lynch, George Harris, Natalia Tena.

Nhà sản xuất: Warner Bros

Thể loại: Phiêu lưu, Viễn tưởng

Độ dài: 138 phút

Năm sản xuất: 2007

Translators: sweetcandy_love, tan_256, whitepaper, minzthu

Editor: adam77

Typesetter & Encoder: minzthu

Uploader: KSTU - Krfilm.net

Code: Format : AVI
Format/Info : Audio Video Interleave
File size : 901 MiB
Duration : 2h 18mn
Overall bit rate : 911 Kbps
Writing application : Lavf52.0.0
Writing library : VirtualDub build 29393/release

Video
ID : 0
Format : AVC
Format/Info : Advanced Video Codec
Format profile : [email protected]
Format settings, CABAC : Yes
Format settings, ReFrames : 1 frame
Codec ID : H264
Duration : 2h 18mn
Bit rate : 774 Kbps
Width : 1 280 pixels
Height : 528 pixels
Display aspect ratio : 2.40:1
Frame rate : 23.976 fps
Color space : YUV
Chroma subsampling : 4:2:0
Bit depth : 8 bits
Scan type : Progressive
Bits/(Pixel*Frame) : 0.048
Stream size : 765 MiB (85%)
Writing library : x264 core 68 r1195bm 5d75a9b
Encoding settings : cabac=1 / ref=1 / deblock=1:0:0 / analyse=0x3:0x13 / me=umh / subme=7 / psy_rd=0.0:0.0 / mixed_ref=0 / me_range=16 / chroma_me=1 / trellis=1 / 8x8dct=1 / cqm=0 / deadzone=21,11 / chroma_qp_offset=0 / threads=1 / thread_queue=1 / nr=0 / decimate=1 / mbaff=0 / bframes=0 / keyint=250 / keyint_min=25 / scenecut=40 / rc=crf / crf=26.0 / qcomp=0.60 / qpmin=10 / qpmax=51 / qpstep=4 / ip_ratio=1.40 / aq=2:1.00

Audio
ID : 1
Format : MPEG Audio
Format phiên bản : phiên bản 1
Format profile : Layer 3
Mode : Joint stereo
Mode extension : MS Stereo
Codec ID : 55
Codec ID/Hint : MP3
Duration : 2h 18mn
Bit rate mode : Constant
Bit rate : 128 Kbps
Channel(s) : 2 channels
Sampling rate : 48.0 KHz
Compression mode : Lossy
Stream size : 127 MiB (14%)
Alignment : Split accross interleaves
Interleave, duration : 42 ms (1.00 video frame)
Interleave, preload duration : 500 ms









Bấm vào đây để đăng nhập và xem link!
Bấm vào đây để đăng nhập và xem link!

Harry Potter and the Half-Blood Prince (2009) – Harry Potter và Hoàng Tử Lai



Năm học thứ sáu của Harry Potter ở Hogwarts có nhiều thay đổi. Đầu tiên là chuyện chào đón một giáo sư mới tại Hogwarts, thầy Horace Slughorn, người dạy môn độc dược. Và thầy Dumbledore mở một lớp học riêng cho Harry. Ở đó, thầy cho Harry xem những kí ức về những bí mật (an ninh) đen tối của quá khứ Voldermort, với hy vọng rằng Harry có thể lợi dụng những điểm yểu của Voldermort để đánh bại hắn trong trận chiến cuối cùng. Bên cạnh đó, Harry còn phải đối mặt với những e sợ của mình khi cậu nhận thấy mình đang thầm thương trộm nhớ em gái của cậu bạn thân nhất, Ginny Weasly, người đang hẹn hò với bạn cùng lớp của Harry, Dean Thomas.

Thế lực của Voldermort ngày càng lớn mạnh, cuộc chiến chống lại thế lực hắc ám ngày càng đến gần làm cho bộ phim càng kịch tính hơn. Đã bắt đầu có những hy sinh mất mát …

Bấm vào đây để đăng nhập và xem link!

Đạo diễn: David Yates

Diễn viên: Daniel Radcliffe, Emma Watson, Rupert Grint, Michael Gambon, Alan Rickman, Helena Bonham Carter, Jim Broadbent, Tom Felton, Evanna Lynch, David Thewlis, Timothy Spall...

Nhà sản xuất: Warner Bros

Thể loại: Phiêu lưu, Viễn tưởng

Độ dài: 153 phút

Năm sản xuất: 2009

Translators: minzthu, whitepaper, linhpy, tan_256,

spread4790, namwest, sweetcandy_love

Editor: adam77

Typesetter & Encoder: minzthu

Uploader: KSTU - Krfilm.net

Code: Format : AVI
Format/Info : Audio Video Interleave
File size : 872 MiB
Duration : 2h 33mn
Overall bit rate : 795 Kbps
Writing application : Lavf52.31.0
Writing library : VirtualDub build 29393/release

Video
ID : 0
Format : AVC
Format/Info : Advanced Video Codec
Format profile : [email protected]
Format settings, CABAC : Yes
Format settings, ReFrames : 1 frame
Codec ID : H264
Duration : 2h 33mn
Bit rate : 655 Kbps
Width : 1 280 pixels
Height : 528 pixels
Display aspect ratio : 2.40:1
Frame rate : 29.970 fps
Color space : YUV
Chroma subsampling : 4:2:0
Bit depth : 8 bits
Scan type : Progressive
Bits/(Pixel*Frame) : 0.032
Stream size : 719 MiB (82%)
Writing library : x264 core 68 r1195bm 5d75a9b
Encoding settings : cabac=1 / ref=1 / deblock=1:0:0 / analyse=0x3:0x13 / me=umh / subme=7 / psy_rd=0.0:0.0 / mixed_ref=0 / me_range=16 / chroma_me=1 / trellis=1 / 8x8dct=1 / cqm=0 / deadzone=21,11 / chroma_qp_offset=0 / threads=1 / thread_queue=1 / nr=0 / decimate=1 / mbaff=0 / bframes=0 / keyint=250 / keyint_min=25 / scenecut=40 / rc=crf / crf=26.0 / qcomp=0.60 / qpmin=10 / qpmax=51 / qpstep=4 / ip_ratio=1.40 / aq=2:1.00

Audio
ID : 1
Format : MPEG Audio
Format phiên bản : phiên bản 1
Format profile : Layer 3
Mode : Joint stereo
Mode extension : MS Stereo
Codec ID : 55
Codec ID/Hint : MP3
Duration : 2h 33mn
Bit rate mode : Constant
Bit rate : 128 Kbps
Channel(s) : 2 channels
Sampling rate : 44.1 KHz
Compression mode : Lossy
Stream size : 141 MiB (16%)
Alignment : Split accross interleaves
Interleave, duration : 33 ms (1.00 video frame)
Interleave, preload duration : 500 ms









Bấm vào đây để đăng nhập và xem link!
Bấm vào đây để đăng nhập và xem link!
Harry Potter and the Deathly Hallows Part 1 (2010) – Harry Potter và Bảo Bối Tử Thần Phần 1



Thế lực của Voldemort ngày càng lớn mạnh và điều khiển cả Bộ Phép Thuật lẫn Hogwarts. Harry, Ron, và Hermione quyết định thay thầy Dumbledore hoàn thi hành nhiệm vụ và tìm các Horcruxes còn lại để đánh bại Chúa tể bóng tối. Cả thể giới phù thủy đều trông chờ vào bộ ba này dù hi vọng rất mong manh...

Bấm vào đây để đăng nhập và xem link!

Thời lượng: 146 phút

Ngôn ngữ: Tiếng anh với phụ đề Tiếng Việt

Thể loại: Hành Động, Phiêu Lưu, KH Viễn Tưởng/ Thần Thoại

Đạo diễn: David Yates

Diễn viên: Emma Watson, Daniel Radcliffe, Helena Bonham, Ralph Fiennes, Michael Gambon

KSTE's subteam

Translator: oopssy, scarlett764

Editor: adam77, oopssy

TS + EC: congacon

Poster: NhiNhi

Uploader: KSTU - Krfilm.net


Code: http://www.mediafire.com/?hy8mginhx80g08v
http://www.mediafire.com/?xzk8jj2mnt5ly2l
http://www.mediafire.com/?6luqhbnz08jc5a3
http://www.mediafire.com/?1p4by66axad7n44
http://www.mediafire.com/?d5sn9di7i4ldixd
http://www.mediafire.com/?94a984zicm9dddf
http://www.mediafire.com/?olj2xvokwpy8vtv
http://www.mediafire.com/?ha0daoy2xvi8407
http://www.mediafire.com/?e5dwiq4c57hdhh1
http://www.mediafire.com/?ombxdz4k3b65bi5
windy_yeu - kst.vn
Bấm vào đây để đăng nhập và xem link!
Bấm vào đây để đăng nhập và xem link!
Bấm vào đây để đăng nhập và xem link!
Harry Potter and the Deathly Hallows Part 2 (2011) – Harry Potter và Bảo Bối Tử Thần Phần 2



Như chúng ta vừa biết, kết thúc phần 1 là bộ ba Harry Potter (Daniel Radcliffe), Ron Weasley (Rupert Grint) và Hermione Granger (Emma Watson) vẫn đang trên đường đi tìm và phá hủy Trường Sinh Linh Giá - bí mật (an ninh) dẫn đến sự bất tử của Chúa tể Voldemort. Thế Lực Bóng Tối vẫn tiếp tục truy đuổi nhóm bạn gắt gao hòng ngăn họ hoàn thành sứ mệnh. Một cuộc chiến lớn chưa từng có giữa Thiện và Ác bắt đầu và xáo trộn cả thế giới.

Bấm vào đây để đăng nhập và xem link!

Đạo diễn : David Yates

Diễn Viên : Daniel Radcliffe, Emma Watson, Ruprt Grint

Thể loại : Hành động, giả tưởng

Hãng Phát hành : Warner Bros

Đánh giá : AAA

Thời lượng : 130 phút

KSTE's subteam

Translator: dieutu

leemiruto

ranmori_93

[M]ou$e0912


Bấm vào đây để đăng nhập và xem link!
Bấm vào đây để đăng nhập và xem link!
Bấm vào đây để đăng nhập và xem link!

By vanipea
#563329
Hardsub Việt


Nguồn Kst.vn

Mọi người lưu vào tài khoản MF của mình để đề phòng link die
Kết nối đề xuất: