By youandme_blog
#562636 Due West Our Sex Journey 2012 KORSUB x264 AC3-ADiOS - Nhất Lộ Hướng Tây +18
Code: Unique ID : 206786995265361686582097450777457977421 (0x9B91BA045E11E9DAB7192ECF4C8FE84D)
Complete name : Due.West.Our.Sex.Journey.2012.x264.AC3.mkv
Format : Matroska
Format phiên bản : phiên bản 2
File size : 1.46 GiB
Duration : 1h 57mn
Overall bit rate : 1 773 Kbps
Encoded date : UTC 2012-12-18 05:35:26
Writing application : mkvmerge v5.8.0 ('No Sleep / Pillow') built on Sep 2 2012 15:37:04
Writing library : Kirara Encoder

Video
ID : 1
Format : AVC
Format/Info : Advanced Video Codec
Format profile : [email protected]
Format settings, CABAC : No
Format settings, ReFrames : 1 frame
Muxing mode : Header stripping
Codec ID : V_MPEG4/ISO/AVC
Duration : 1h 57mn
Bit rate : 1 580 Kbps
Width : 720 pixels
Height : 400 pixels
Display aspect ratio : 16:9
Frame rate mode : Constant
Frame rate : 29.970 fps
Color space : YUV
Chroma subsampling : 4:2:0
Bit depth : 8 bits
Scan type : Progressive
Bits/(Pixel*Frame) : 0.183
Stream size : 1.27 GiB (87%)
Audio
ID : 2
Format : AC-3
Format/Info : Audio Coding 3
Mode extension : CM (complete main)
Format settings, Endianness : Big
Muxing mode : Header stripping
Codec ID : A_AC3
Duration : 1h 57mn
Bit rate mode : Constant
Bit rate : 192 Kbps
Channel(s) : 5 channels
Channel positions : Front: L C R, Side: L R
Sampling rate : 48.0 KHz
Bit depth : 16 bits
Compression mode : Lossy
Delay relative to video : -1s 206ms
Stream size : 162 MiB (11%)
Default : Yes
Forced : No

Mượn cớ thảo luận về tình yêu và tình dục, tác phẩm Nhất lộ hướng tây của đạo diễn Hồ Diệu Huy vừa triển khai những mối quan hệ đầy kịch tính của các cặp thanh thiếu niên sống trong xã hội Hồng Kông đương đại. Để khẳng định địa vị xã hội và dục vọng của bản thân, họ vừa dần biến thành một con người khác hẳn bản chất ban đầu. Cùng với những mâu thuẫn nảy sinh trong quá trình biến đổi tâm lý, những cặp tình nhân này sau cùng từ yêu thành hận, từ gắn bó thành lạnh lùng xa cách... Tất cả những cung bậc cảm xúc trong phim khiến người xem vừa sợ hãi vừa tò mò, vừa KẾT thú vừa lo lắng..



Linkdown

1 Link 1.46 Gb
Bấm vào đây để đăng nhập và xem link!

Sub
Bấm vào đây để đăng nhập và xem link!

By gvr_vergil
Kết nối đề xuất: