By Trevyn
#562608 Barbie In A Mermaid Tale 2 2012 DVDRip XViD





Code: http://www.imdb.com/title/tt2197823/

Format : AVI

Format/Info : Audio Video Interleave

File size : 700 MB

Duration : 1h 12mn

Overall bit rate : 1 343 Kbps


Video

ID : 0

Format : MPEG-4 Visual

Format profile : Advanced [email protected]

Format settings, BVOP : 2

Format settings, QPel : No

Format settings, GMC : No warppoints

Format settings, Matrix : Default (H.263)

Codec ID : XVID

Codec ID/Hint : XviD

Duration : 1h 12mn

Bit rate : 1 143 Kbps

Width : 656 pixels

Height : 352 pixels

Display aspect ratio : 1.864

Frame rate : 23.976 fps

Color space : YUV

Chroma subsampling : 4:2:0

Bit depth : 8 bits

Scan type : Progressive

Compression mode : Lossy

Bits/(Pixel*Frame) : 0.206

Stream size : 596 MiB (85%)

Writing library : XviD 1.2.1 (UTC 2008-12-04)


Audio

ID : 1

Format : AC-3

Format/Info : Audio Coding 3

Mode extension : CM (complete main)

Codec ID : 2000

Duration : 1h 12mn

Bit rate mode : Constant

Bit rate : 192 Kbps

Channel(s) : 2 channels

Channel positions : Front: L R

Sampling rate : 48.0 KHz

Bit depth : 16 bits

Compression mode : Lossy

Stream size : 100 MiB (14%)

Alignment : Aligned on interleaves

Interleave, duration : 64 ms (1.53 video frames)

Interleave, preload duration : 192 ms



Surf's up for Barbie as she returns as Merliah, the fun and fashionable surfing champion who's also a magical mermaid princess!?In this exciting sea-quel, Merliah makes a splash when she heads to Australia for the ultimate surfing competition. When the evil mermaid Eris escapes from her whirlpool with plans to take over the throne of Oceana, Merliah and her sea friends dive in to stop her. It's a fresh new adventure where Merliah learns that anything is possible and she really can have the best.









Code: http://wizzupload.com/7u4wpsij7y8w

https://fileparadox.in/q41sedaj6rx6/Barbie_In_A_Mermaid_Tale_2_2012_DVDRip_XViD-imobilink.avi

http://www.blitzfiles.com/0b24bu9jvh18

http://www.secureupload.eu/aminw13yirj9/Barbie_In_A_Mermaid_Tale_2_2012_DVDRip_XViD-imobilink.avi

http://filegag.com/nlqa7ib2hitx


Lưu ý khi sử dụng

- Gặp Link download hỏng, hãy đăng trả lời (yêu cầu link download mới), Các MOD sẽ cập nhật link sớm nhất
- Tìm kiếm trước khi đăng bài mới

Chủ đề liên quan:
Kết nối đề xuất: