By ccbb_tieuthudethuong
#560283 Tai Chi Zero 2012 - Thái Cực Quyền



Code: http://www.imdb.com/title/tt1981080/


General Information:
Code: Format : MPEG-4
Format profile : Base Media
Codec ID : isom
File size : 873 MiB
Duration : 1h 34mn
Overall bit rate mode : Variable
Overall bit rate : 1 298 Kbps
Encoded date : UTC 2012-12-01 16:27:21
Tagged date : UTC 2012-12-01 16:27:21

Video
ID : 1
Format : AVC
Format/Info : Advanced Video Codec
Format profile : [email protected]
Format settings, CABAC : Yes
Format settings, ReFrames : 4 frames
Codec ID : avc1
Codec ID/Info : Advanced Video Coding
Duration : 1h 34mn
Bit rate : 1 202 Kbps
Maximum bit rate : 8 569 Kbps
Width : 1 280 pixels
Height : 544 pixels
Display aspect ratio : 2.35:1
Frame rate mode : Constant
Frame rate : 25.000 fps
Color space : YUV
Chroma subsampling : 4:2:0
Bit depth : 8 bits
Scan type : Progressive
Bits/(Pixel*Frame) : 0.069
Stream size : 806 MiB (92%)
Title : Imported with GPAC 0.4.6-DEV (internal rev. 5)
Writing library : x264 core 125 r2200 999b753
Encoding settings : cabac=1 / ref=3 / deblock=1:0:0 / analyse=0x1:0x111 / me=umh / subme=7 / psy=1 / psy_rd=1.00:0.00 / mixed_ref=1 / me_range=16 / chroma_me=1 / trellis=2 / 8x8dct=0 / cqm=0 / deadzone=21,11 / fast_pskip=1 / chroma_qp_offset=-2 / threads=6 / lookahead_threads=1 / sliced_threads=0 / nr=0 / decimate=1 / interlaced=0 / bluray_compat=0 / constrained_intra=0 / bframes=3 / b_pyramid=2 / b_adapt=2 / b_bias=100 / direct=3 / weightb=1 / open_gop=0 / weightp=2 / keyint=250 / keyint_min=25 / scenecut=40 / intra_refresh=0 / rc_lookahead=40 / rc=2pass / mbtree=1 / bitrate=1202 / ratetol=1.0 / qcomp=0.60 / qpmin=0 / qpmax=69 / qpstep=4 / cplxblur=20.0 / qblur=0.5 / vbv_maxrate=50000 / vbv_bufsize=50000 / nal_hrd=none / ip_ratio=1.40 / aq=1:1.00
Encoded date : UTC 2012-12-01 16:26:50
Tagged date : UTC 2012-12-01 16:27:26

Audio
ID : 2
Format : AAC
Format/Info : Advanced Audio Codec
Format profile : LC
Codec ID : 40
Duration : 1h 34mn
Bit rate mode : Variable
Bit rate : 96.0 Kbps
Maximum bit rate : 139 Kbps
Channel(s) : 1 channel
Channel positions : Front: C
Sampling rate : 44.1 KHz
Compression mode : Lossy
Stream size : 64.6 MiB (7%)
Encoded date : UTC 2012-12-01 16:27:24
Tagged date : UTC 2012-12-01 16:27:26

Nội dung chính của phim kể về anh chàng Dương Lộ Thiền nắm giữ một sức mạnh khủng khiếp khi được phong ấn ở cái bớt trên trán mình. Tuy nhiên, với dị tật này, anh bị rất nhiều người dân trong làng trêu trọc. Mẹ của Lộ Thiền chính là người vừa thôi thúc anh luyện tập võ thuật. Để thực hiện ước nguyện của bà, anh vừa lặn lội đến Trần Gia Câu xa xôi để học Thái Cực quyền


















Upfile.vn
Bấm vào đây để đăng nhập và xem link!
Bấm vào đây để đăng nhập và xem link!
Bấm vào đây để đăng nhập và xem link!
Bấm vào đây để đăng nhập và xem link!
Bấm vào đây để đăng nhập và xem link! 1 Link - Tốc Độ Cao - Resume
Bấm vào đây để đăng nhập và xem link! Cần người giúp xác nhận tài khoảng Zing để upload lên Zing File ... Ai giúp được Phần mềm Inbox hộ nha

Lưu ý khi sử dụng

- Gặp Link download hỏng, hãy đăng trả lời (yêu cầu link download mới), Các MOD sẽ cập nhật link sớm nhất
- Tìm kiếm trước khi đăng bài mới

Chủ đề liên quan:
By ha_dangyeu
By nguyetletuongtu1
#560320 Mp4 nhưng nén theo chuẩn H264 (chuẩn nén) nên bản chất nó không khác MKV đâu bạn ... (hầu hết MKV cũng nén chuẩn X(H)264)

Mp4 chỉ là container dễ cho chuyện Online streaming thôi
Kết nối đề xuất: