By formej
#559505 Lara Croft: Tomb Raider -Kẻ Cướp Lăng Mộ Cổ (2001) 720p BRRip


Tên phim: Lara Croft: Tomb Raider
IMDB Rating: 5.5/10 from 94,572 users
IMDb: Bấm vào đây để đăng nhập và xem link!
Tên khác: Kẻ Cướp Lăng Mộ Cổ
Đạo diễn: Simon West
Diễn viên: Angelina Jolie, Jon Voight and Iain Glen
Sản xuất: Paramount Pictures
Thể loại: Action | Adventure | Fantasy
Quốc gia: Mỹ
Năm phát hành: 2001
Thời lượng: 100 phút

Dựa theo trò chơi nổi tiếng cùng tên, Lara Croft là một nhà thám hiểm hấp dẫn dẻo dai được sinh ra trong một gia đình giàu có và được học hành chuẩn bị cho tương lai ở những ngôi trường giỏi nhất.

Cô đi du lịch khắp những địa điểm nguy hiểm và bí ẩn trên toàn thế giới để kiếm những hầm mộ quý bị thất lạc của những vị hoàng đế xa xưa. Cô có thể nói nhiều thứ tiếng, được rèn luyện chiến đấu kỹ càng và chỉ hoàn toàn làm chuyện vì sở KẾT thám hiểm chứ không phải nghe theo mệnh lệnh của ai hết.

Nhưng bây giờ cô phải đối mặt với thử thách lớn nhất đời: kiếm hai mảnh vỡ của một cổ vật được chôn ở một thời (gian) điểm và vị trí nào đó. Người sở hữu nó sẽ có được quyền lực tối cao.

Nhưng để đạt được điều đó, trước tiên cô phải đến một xã hội bí ẩn và nguy hiểm. Số phận của con người nằm trong tay của một mình Lara Croft


Code: Format : MPEG-4
Format profile : Base Media
Codec ID : isom
File size : 699 MiB
Duration : 1h 40mn
Overall bit rate mode : Variable
Overall bit rate : 973 Kbps
Encoded date : UTC 2011-08-19 18:43:39
Tagged date : UTC 2011-08-19 18:43:39

Video
ID : 1
Format : AVC
Format/Info : Advanced Video Codec
Format profile : [email protected]
Format settings, CABAC : Yes
Format settings, ReFrames : 5 frames
Codec ID : avc1
Codec ID/Info : Advanced Video Coding
Duration : 1h 40mn
Bit rate : 938 Kbps
Maximum bit rate : 3 173 Kbps
Width : 1 280 pixels
Height : 528 pixels
Display aspect ratio : 2.40:1
Frame rate mode : Constant
Frame rate : 23.976 fps
Color space : YUV
Chroma subsampling : 4:2:0
Bit depth : 8 bits
Scan type : Progressive
Bits/(Pixel*Frame) : 0.058
Stream size : 674 MiB (96%)
Writing library : x264 core 114 r1924 08d04a4
Encoding settings : cabac=1 / ref=5 / deblock=1:-2:-1 / analyse=0x3:0x113 / me=umh / subme=5 / psy=1 / psy_rd=0.00:0.00 / mixed_ref=1 / me_range=16 / chroma_me=1 / trellis=1 / 8x8dct=1 / cqm=0 / deadzone=21,11 / fast_pskip=1 / chroma_qp_offset=0 / threads=3 / sliced_threads=0 / nr=0 / decimate=1 / interlaced=0 / constrained_intra=0 / bframes=16 / b_pyramid=2 / b_adapt=1 / b_bias=0 / direct=3 / weightb=1 / open_gop=0 / weightp=2 / keyint=250 / keyint_min=23 / scenecut=40 / intra_refresh=0 / rc=2pass / mbtree=0 / bitrate=938 / ratetol=1.0 / qcomp=0.60 / qpmin=10 / qpmax=51 / qpstep=4 / cplxblur=20.0 / qblur=0.5 / ip_ratio=1.40 / pb_ratio=1.30 / aq=2:1.00
Encoded date : UTC 2011-08-19 18:43:39
Tagged date : UTC 2011-08-19 18:44:31

Audio
ID : 2
Format : AAC
Format/Info : Advanced Audio Codec
Format profile : HE-AAC / LC
Codec ID : 40
Duration : 1h 40mn
Bit rate mode : Variable
Bit rate : 32.0 Kbps
Maximum bit rate : 67.7 Kbps
Channel(s) : 2 channels
Channel positions : Front: L R
Sampling rate : 48.0 KHz / 24.0 KHz
Compression mode : Lossy
Stream size : 23.0 MiB (3%)
Encoded date : UTC 2011-08-19 18:44:30
Tagged date : UTC 2011-08-19 18:44:31










UpVN
Bấm vào đây để đăng nhập và xem link!
SdVN

Part 1: Bấm vào đây để đăng nhập và xem link!

Part 2: Bấm vào đây để đăng nhập và xem link!

Part 3: Bấm vào đây để đăng nhập và xem link!

Part 4: Bấm vào đây để đăng nhập và xem link!


Pass: ketnooi.com/forum

Back-bite Me

Part 1: Bấm vào đây để đăng nhập và xem link!

Part 2: Bấm vào đây để đăng nhập và xem link!

Part 3: Bấm vào đây để đăng nhập và xem link!

Part 4: Bấm vào đây để đăng nhập và xem link!


Pass: ketnooi.com/forum


Vietsub chuẩn: Bấm vào đây để đăng nhập và xem link!

Tomb Raider The Cradle of Life - Kẻ Cướp Lăng Mộ Cổ 2 (2003) 720p BRRip


Tên phim: Tomb Raider The Cradle of Life
IMDB Rating: 5.3/10 from 60,803 users
IMDb: Bấm vào đây để đăng nhập và xem link!
Tên khác: Kẻ Cướp Lăng Mộ Cổ 2
Đạo diễn: Simon West
Diễn viên: Angelina Jolie, Jon Voight and Iain Glen
Sản xuất: Paramount Pictures
Thể loại: Action | Adventure | Fantasy
Quốc gia: Mỹ
Năm phát hành: 2003
Thời lượng: 117 phút

Những màn hành động ngoạn mục, những pha rượt đuổi nghẹt thở và sự chăm chút kỹ lưỡng về mặt kỹ xảo chẳng những không giúp bộ phim trở thành bm tấn, mà còn biến nó thành nỗi thất vọng của các nhà sản xuất.


Được đầu tư hơn 100 triệu USD, Cradle of Life chỉ đem về 65 triệu USD ở nước Mỹ. Bộ phim chỉ thu được lãi khi phát hành ra các nước khác. Sự thất bại của Cradle of Life gây ra một hiệu ứng dây chuyền – trong đó hàng loạt phần tiếp theo của các bộ phim từng ăn khách vừa bị hủy bỏ. Nhìn chung, 2003 không phải là năm tốt lành đối với các sản phẩm ăn theo trò chơi video Tomb Raider. Hãng Paramount cho rằng thất bại của bộ phim bắt nguồn từ những sai lầm trong chuyện phát hành Tomb Raider: The Angel of Darkness – trò chơi mới nhất trong loạt game Tomb Raider. Cụ thể, Tomb Raider: The Angel of Darkness được phát hành khoảng nửa tháng trước khi Cradle of Life ra rạp. Điều đó khiến cho khán giả không còn cảm giác hứng thú với bộ phim. Ban đầu các nhà sản xuất dự định sản xuất phần tiếp theo, nhưng sự chỉ trích mạnh mẽ của giới phê bình cùng thất bại về doanh thu khiến họ quyết định hủy bỏ dự án.....


Code: Format : MPEG-4
Format profile : Base Media
Codec ID : isom
File size : 699 MiB
Duration : 1h 57mn
Overall bit rate mode : Variable
Overall bit rate : 833 Kbps
Encoded date : UTC 2011-08-20 06:14:15
Tagged date : UTC 2011-08-20 06:14:15

Video
ID : 1
Format : AVC
Format/Info : Advanced Video Codec
Format profile : [email protected]
Format settings, CABAC : Yes
Format settings, ReFrames : 5 frames
Codec ID : avc1
Codec ID/Info : Advanced Video Coding
Duration : 1h 57mn
Bit rate : 800 Kbps
Maximum bit rate : 2 519 Kbps
Width : 1 280 pixels
Height : 544 pixels
Display aspect ratio : 2.35:1
Frame rate mode : Constant
Frame rate : 23.976 fps
Color space : YUV
Chroma subsampling : 4:2:0
Bit depth : 8 bits
Scan type : Progressive
Bits/(Pixel*Frame) : 0.048
Stream size : 670 MiB (96%)
Writing library : x264 core 114 r1924 08d04a4
Encoded date : UTC 2011-08-20 06:14:15
Tagged date : UTC 2011-08-20 06:15:11

Audio
ID : 2
Format : AAC
Format/Info : Advanced Audio Codec
Format profile : HE-AAC / LC
Codec ID : 40
Duration : 1h 57mn
Bit rate mode : Variable
Bit rate : 32.0 Kbps
Maximum bit rate : 46.2 Kbps
Channel(s) : 2 channels
Channel positions : Front: L R
Sampling rate : 48.0 KHz / 24.0 KHz
Compression mode : Lossy
Stream size : 26.8 MiB (4%)
Encoded date : UTC 2011-08-20 06:15:09
Tagged date : UTC 2011-08-20 06:15:11










UpVN
Bấm vào đây để đăng nhập và xem link!
SdVN

Part 1: Bấm vào đây để đăng nhập và xem link!

Part 2: Bấm vào đây để đăng nhập và xem link!

Part 3: Bấm vào đây để đăng nhập và xem link!

Part 4: Bấm vào đây để đăng nhập và xem link!


Pass: ketnooi.com/forum

Back-bite Me

Part 1: Bấm vào đây để đăng nhập và xem link!

Part 2: Bấm vào đây để đăng nhập và xem link!

Part 3: Bấm vào đây để đăng nhập và xem link!

Part 4: Bấm vào đây để đăng nhập và xem link!


Pass: ketnooi.com/forum


Vietsub chuẩn: Bấm vào đây để đăng nhập và xem link!


Chúc các bạn xem phim vui vẻ


Lưu ý khi sử dụng

- Gặp Link download hỏng, hãy đăng trả lời (yêu cầu link download mới), Các MOD sẽ cập nhật link sớm nhất
- Tìm kiếm trước khi đăng bài mới

Chủ đề liên quan:
Kết nối đề xuất: