By gambatte43
#558647 Mulan - Hoa Mộc Lan (1998) 720p BRRip


Tên phim: Mulan
IMDb: Bấm vào đây để đăng nhập và xem link!
Tên khác: Hoa Mộc Lan
Đạo diễn: Tony Bancroft, Barry Cook
Diễn viên: Ming-Na Wen, Eddie Murphy và BD Wong
Sản xuất: Walt Disney
Thể loại: Animation | Adventure | Drama
Quốc gia: Mỹ
Năm phát hành: 1998
Thời lượng: 87 phút

Nội dung bộ phim phụ thuộc theo một câu chuyện dân gian nổi tiếng của Trung Quốc kể về cô gái giả trai ra trận thường được biết đến dưới cái tên Hoa Mộc Lan. Tuyệt phẩm này của Walt Disney được đề cử một giải Oscar cho “Nhạc phim hay nhất” năm 1999. Mulan (Ming-Na Wen lồng tiếng) là người con duy nhất trong gia đình danh giá. Mặc dù luôn cố gắng làm vừa lòng mẹ cha nhưng dường như cô luôn khiến họ phải thất vọng. Khi quân giặc tới xâm chiếm bờ cõi Trung Hoa, thanh niên trai tráng đều hăng hái ghi tên đi lính. Fa Zhou (Soon-Tek Oh) người cha già của Mulan vốn bị thương và không thể đi vững nhưng vẫn muốn ra trận chiến đấu vì đất nước và vì danh dự của dòng họ. Quá thương cha già phải đi tòng quân, Mulan liền lấy áo giáp và ngựa cải trang thành một người đàn ông, đứng trước bàn thờ tổ tiên khấn vái mong được phù hộ rồi thay cha ra trận. Mushu (Eddie Murphy) một con rồng nhỏ vừa được phái đi để bảo vệ Mulan trong khi chiến đấu.

Code: Format : Matroska
Format phiên bản : phiên bản 2
File size : 546 MiB
Duration : 1h 27mn
Overall bit rate : 870 Kbps
Movie name : Mulan (1998) 720p HDTVRip Eng-Hindi SDR-Release -=![amit6688]!=-
Encoded date : UTC 2012-11-14 08:55:41
Writing application : mkvmerge v5.7.0 ('The Whirlwind') built on Jul 8 2012 20:08:51
Writing library : libebml v1.2.3 + libmatroska v1.3.0

Video
ID : 1
Format : AVC
Format/Info : Advanced Video Codec
Format profile : [email protected]
Format settings, CABAC : Yes
Format settings, ReFrames : 5 frames
Format settings, GOP : N=1
Muxing mode : Header stripping
Codec ID : V_MPEG4/ISO/AVC
Duration : 1h 27mn
Nominal bit rate : 829 Kbps
Width : 1 280 pixels
Height : 688 pixels
Display aspect ratio : 1.85:1
Frame rate mode : Constant
Frame rate : 23.976 fps
Color space : YUV
Chroma subsampling : 4:2:0
Bit depth : 8 bits
Scan type : Progressive
Bits/(Pixel*Frame) : 0.039
Title : SDR RELEASE
Language : English
Default : Yes
Forced : No

Audio
ID : 2
Format : AAC
Format/Info : Advanced Audio Codec
Format profile : HE-AAC / LC
Codec ID : A_AAC
Duration : 1h 27mn
Channel(s) : 2 channels
Channel positions : Front: L R
Sampling rate : 48.0 KHz / 24.0 KHz
Compression mode : Lossy
Title : English
Language : English
Default : No
Forced : No









UpVN
Bấm vào đây để đăng nhập và xem link!
Vietsub chuẩn: Bấm vào đây để đăng nhập và xem link!


Mulan II - Hoa Mộc Lan II (2004) BRRip 720p


Tên phim: Mulan II
IMDb: Bấm vào đây để đăng nhập và xem link!
Tên khác: Hoa Mộc Lan II
Đạo diễn: Darrell Rooney, Lynne Southerland
Diễn viên: Ming-Na Wen, BD Wong và Mark Moseley
Sản xuất: Walt Disney
Thể loại: nimation | Adventure | Drama
Quốc gia: Mỹ
Năm phát hành: 2004
Thời lượng: 75 phút

Khi tướng quân Li Shang và Mulan chuẩn bị đính hôn thì được nhà vua triệu vào cung. Nhà vua nói rằng quân Mông Cổ đang tiến rất gần đến biên cương nhà Hán, vua không muốn thần dân 2 nước chỉ vì chiến tranh mà đói khổ, chết chóc, vì thế vua muốn gả 3 cô công chúa cưng của nhà vua cho hoàng tử bên đó, nhằm giao hảo 2 nước.


Thế là vua ra lệnh cho tướng quân Li Shang và Mulan hộ tống 3 cô công chúa này sang Mông Cổ để cống.


Trước khi đi sứ, Mulan và tướng quân Li Shang được chọn 3 người lính nữa cùng đi. Thế là họ nhớ ngay đến 3 người bạn năm xưa trong quân ngũ: Chien-Po ; Ling và Yao.


Cả 5 người hộ tống 3 cô công chúa lên đường. Họ không ngờ rằng trên đường đi ngoài những gian nan mà họ phải gặp họ còn phải đối phó với chính "con tim" của từng người trong đoàn.


Chien-Po; Ling và Yao lần lượt yêu thầm 3 cô công chúa. Điều mà không ai ngờ nhất là cả 3 cô cũng "lần đầu biết yêu". Hì....


Ngoài ra, còn 1 kẻ yêu đơn phương và tìm cách phá hoại trong suốt chuyến đi nữa. Đó chính là chú rồng bé xíu Mushu. Thật bất ngờ... Mushu không muốn Mulan lấy chồng chỉ vì hắn sợ sau khi Mulan lập gia đình sẽ không còn "cưng" hắn nữa và hắn buột phải trở về bên cạnh những linh hồn của dòng tộc nhà họ Fa.


Chính Mushu ly gián Mulan và tướng quân Li Shang. Và cũng chính Mushu kết hợp lại họ khi thấy Mulan đau khổ vì bị Li Shang hiểu lầm. Thế mới nói: "yêu thương một người không phải là chiếm đoạt người đó mà là làm cho người đó hạnh phúc". Rốt cuộc chú rồng bé xíu này cũng hiểu ra được điều này.


Và Mushu đã kịp sửa sai như thế nào? Các bạn hãy xem phim để biết thêm rõ hơn nhé .

Code: Format : Matroska
Format phiên bản : phiên bản 2
File size : 1.01 GiB
Duration : 1h 15mn
Overall bit rate : 1 928 Kbps
Encoded date : UTC 2012-08-09 17:32:48
Writing application : mkvmerge v5.0.0 ('Die Wahre Liebe') built on Sep 25 2011 20:33:49
Writing library : libebml v1.2.2 + libmatroska v1.3.0

Video
ID : 1
Format : AVC
Format/Info : Advanced Video Codec
Format profile : [email protected]
Format settings, CABAC : Yes
Format settings, ReFrames : 9 frames
Codec ID : V_MPEG4/ISO/AVC
Duration : 1h 15mn
Bit rate : 1 505 Kbps
Width : 1 280 pixels
Height : 720 pixels
Display aspect ratio : 16:9
Frame rate mode : Constant
Frame rate : 25.000 fps
Color space : YUV
Chroma subsampling : 4:2:0
Bit depth : 8 bits
Scan type : Progressive
Bits/(Pixel*Frame) : 0.065
Stream size : 810 MiB (78%)
Writing library : x264 core 125 r2208 d9d2288
Language : English
Default : Yes
Forced : No
Matrix coefficients : BT.709

Audio
ID : 2
Format : AC-3
Format/Info : Audio Coding 3
Mode extension : CM (complete main)
Format settings, Endianness : Big
Codec ID : A_AC3
Duration : 1h 15mn
Bit rate mode : Constant
Bit rate : 384 Kbps
Channel(s) : 6 channels
Channel positions : Front: L C R, Side: L R, LFE
Sampling rate : 48.0 KHz
Bit depth : 16 bits
Compression mode : Lossy
Delay relative to video : 32ms
Stream size : 207 MiB (20%)
Default : Yes
Forced : No









UpVN
Bấm vào đây để đăng nhập và xem link!
Vietsub chuẩn: Bấm vào đây để đăng nhập và xem link!

Chúc các bạn xem phim vui vẻ


Lưu ý khi sử dụng

- Gặp Link download hỏng, hãy đăng trả lời (yêu cầu link download mới), Các MOD sẽ cập nhật link sớm nhất
- Tìm kiếm trước khi đăng bài mới

Chủ đề liên quan:
Kết nối đề xuất: