By khungtroimongmo_20102005
#558608 The.Great.Wall.of.China.2010.720p.Bluray.DD2.0.x26 4-playHD

Vạn Lý Trường Thành (PĐVN)



Code: General

Complete name : The.Great.Wall.of.China.2010.720p.Bluray.DD2.0.x264-playHD Uploaded by PUB.VN.mkv
Format : Matroska
Format phiên bản : phiên bản 2
File size : 4.30 GiB
Duration : 49mn 9s
Overall bit rate : 12.5 Mbps
Movie name : Historic Pathways The Great Wall of China Blu-ray 720p x264 playHD
Encoded date : UTC 2011-10-16 05:43:58
Writing application : mkvmerge v5.0.1 ('Es ist Sommer') built on Oct 9 2011 11:55:43
Writing library : libebml v1.2.2 + libmatroska v1.3.0

Video
ID : 1
Format : AVC
Format/Info : Advanced Video Codec
Format profile : [email protected]
Format settings, CABAC : Yes
Format settings, ReFrames : 3 frames
Muxing mode : Header stripping
Codec ID : V_MPEG4/ISO/AVC
Duration : 49mn 9s
Bit rate mode : Variable
Bit rate : 12.3 Mbps
Maximum bit rate : 25.0 Mbps
Width : 1 280 pixels
Height : 720 pixels
Display aspect ratio : 16:9
Frame rate : 23.976 fps
Color space : YUV
Chroma subsampling : 4:2:0
Bit depth : 8 bits
Scan type : Progressive
Bits/(Pixel*Frame) : 0.557
Stream size : 4.14 GiB (96%)
Writing library : x264 core 80 r1376kGIT 3feaec2
Encoding settings : cabac=1 / ref=3 / deblock=1:0:0 / analyse=0x3:0x133 / me=umh / subme=7 / psy=1 / psy_rd=1.0:0.0 / mixed_ref=1 / me_range=16 / chroma_me=1 / trellis=1 / 8x8dct=1 / cqm=0 / deadzone=21,11 / fast_pskip=1 / chroma_qp_offset=-2 / threads=3 / sliced_threads=0 / nr=0 / decimate=1 / mbaff=0 / constrained_intra=0 / bframes=3 / b_pyramid=0 / b_adapt=1 / b_bias=0 / direct=1 / wpredb=1 / wpredp=2 / keyint=240 / keyint_min=24 / scenecut=40 / rc_lookahead=40 / rc=2pass / mbtree=1 / bitrate=12312 / ratetol=1.0 / qcomp=0.60 / qpmin=10 / qpmax=51 / qpstep=4 / cplxblur=20.0 / qblur=0.5 / vbv_maxrate=25000 / vbv_bufsize=25000 / ip_ratio=1.40 / aq=1:1.00

Audio
ID : 2
Format : AC-3
Format/Info : Audio Coding 3
Mode extension : CM (complete main)
Muxing mode : Header stripping
Codec ID : A_AC3
Duration : 49mn 9s
Bit rate mode : Constant
Bit rate : 224 Kbps
Channel(s) : 2 channels
Channel positions : Front: L R
Sampling rate : 48.0 KHz
Bit depth : 16 bits
Compression mode : Lossy
Stream size : 78.8 MiB (2%)
Language : English

Text
ID : 3
Format : UTF-8
Codec ID : S_TEXT/UTF8
Codec ID/Info : UTF-8 Plain Text
Language : Vietnamese

Menu
00:00:00.000 : en:00:00:00.000
00:07:58.111 : en:00:07:58.111
00:18:34.213 : en:00:18:34.213
00:32:05.423 : en:00:32:05.423
00:36:56.881 : en:00:36:56.881
00:45:20.651 : en:00:45:20.651 Vạn Lý Trường Thành như một con rồng dài 6.700 km trải dài từ đông sang tây, băng qua sa mạc, đồng cỏ, núi non (có nơi cao hơn 1.000 mét) và là chứng nhân về lịch sử, văn hóa, sự phát triển trong suốt 2.400 năm lịch sử của Trung Quốc.Vẻ đẹp có một không hai của Vạn Lý Trường Thành, công trình phòng thủ nổi tiếng thế giới được xây dựng trải qua nhiều triều đại trong lịch sử Trung Quốc.

Vạn Lý Trường Thành là bức tường thành liên tục được xây dựng bằng đất và đá từ thế kỷ 5 trước Công Nguyên cho tới thế kỷ 16, để bảo vệ Trung Quốc khỏi những cuộc tấn công của người Mông Cổ, người Turk và những bộ tộc du mục khác.Vạn Lý Trường Thành có 3 phần cơ bản với độ dài mỗi phần khoảng 5.000 km (xấp xỉ 10.000 lý theo đơn vị đo của người Trung Quốc), chính vì vậy nó mới được gọi “thành dài vạn lý”. Phần đầu của công trình được Tần Thủy Hoàng xây dựng, bằng sức lực của 500 nghìn nhân công trong khi dân số toàn Trung Quốc lúc bấy giờ khoảng 20 triệu người.

Vạn Lý Trường Thành chạy uốn lượn trên những đỉnh núi hiểm trở, do đó công chuyện xây dựng vô cùng tốn công sức và nguy hiểm.Trong thời (gian) chiến, Vạn Lý Trường Thành phát huy tác dụng lớn, có thể ngăn chặn người và ngựa của đối phương tràn sang nên đóng một vị trí chiến lược hết sức quan trọng đối với Trung Quốc trước kia.Trên tường thành có dòng chữ nổi tiếng gắn liền với công trình này: "Bất đáo Trường Thành bay hảo hán" (Không đến Trường Thành không phải là anh hùng).Vào mùa đông, những con đường phủ đầy tuyết trắng dẫn lên Trường Thành chạy len lỏi giữa rừng cây trụi lá càng tạo vẻ hoang vu của vùng biên ải.

Dưới cái lạnh -18oC, tuyết bao phủ khắp các công trình phụ trợ cho Trường Thành rao ra cảnh tượng đầy nét nguyên sơ và hùng vĩ.












Code: Bấm vào đây để đăng nhập và xem link!
By tieuthu9x_kieukidangyeu
Kết nối đề xuất: