By traisanhdieu_tim_gaikute_001
#557856 I Robot



Code: http://www.imdb.com/title/tt0343818/


General Information:
Code: Format : MPEG-4
Format profile : Base Media
Codec ID : isom
File size : 1.04 GiB
Duration : 1h 54mn
Overall bit rate mode : Variable
Overall bit rate : 1 302 Kbps
Encoded date : UTC 2012-12-07 09:38:11
Tagged date : UTC 2012-12-07 09:38:11

Video
ID : 1
Format : AVC
Format/Info : Advanced Video Codec
Format profile : [email protected]
Format settings, CABAC : Yes
Format settings, ReFrames : 4 frames
Codec ID : avc1
Codec ID/Info : Advanced Video Coding
Duration : 1h 54mn
Bit rate : 1 202 Kbps
Maximum bit rate : 7 786 Kbps
Width : 1 280 pixels
Height : 548 pixels
Display aspect ratio : 2.35:1
Frame rate mode : Constant
Frame rate : 23.976 fps
Color space : YUV
Chroma subsampling : 4:2:0
Bit depth : 8 bits
Scan type : Progressive
Bits/(Pixel*Frame) : 0.071
Stream size : 986 MiB (92%)
Title : Imported with GPAC 0.4.6-DEV (internal rev. 5)
Writing library : x264 core 125 r2200 999b753
Encoding settings : cabac=1 / ref=3 / deblock=1:0:0 / analyse=0x1:0x111 / me=umh / subme=7 / psy=1 / psy_rd=1.00:0.00 / mixed_ref=1 / me_range=16 / chroma_me=1 / trellis=2 / 8x8dct=0 / cqm=0 / deadzone=21,11 / fast_pskip=1 / chroma_qp_offset=-2 / threads=3 / lookahead_threads=1 / sliced_threads=0 / nr=0 / decimate=1 / interlaced=0 / bluray_compat=0 / constrained_intra=0 / bframes=3 / b_pyramid=2 / b_adapt=2 / b_bias=100 / direct=3 / weightb=1 / open_gop=0 / weightp=2 / keyint=240 / keyint_min=23 / scenecut=40 / intra_refresh=0 / rc_lookahead=40 / rc=2pass / mbtree=1 / bitrate=1202 / ratetol=1.0 / qcomp=0.60 / qpmin=0 / qpmax=69 / qpstep=4 / cplxblur=20.0 / qblur=0.5 / vbv_maxrate=50000 / vbv_bufsize=50000 / nal_hrd=none / ip_ratio=1.40 / aq=1:1.00
Encoded date : UTC 2012-12-07 09:35:56
Tagged date : UTC 2012-12-07 09:39:18

Audio
ID : 2
Format : AAC
Format/Info : Advanced Audio Codec
Format profile : LC
Codec ID : 40
Duration : 1h 54mn
Bit rate mode : Variable
Bit rate : 96.0 Kbps
Maximum bit rate : 144 Kbps
Channel(s) : 1 channel
Channel positions : Front: C
Sampling rate : 44.1 KHz
Compression mode : Lossy
Stream size : 78.7 MiB (7%)
Encoded date : UTC 2012-12-07 09:38:47
Tagged date : UTC 2012-12-07 09:39:18

Bối cảnh của phim là thành phố Chicago năm 2035. Ở thời (gian) điểm này, công nghệ robot cực kì phát triển với những loại robot tương tự con người và chúng thông dụng như bất kì một loại máy móc nào khác. Nhân vật chính trong phim là Del Spooner, một thanh tra cảnh sát vừa mất đi vợ con và không hề tin tưởng vào robot. Spooner nhận được thông tin về cái chết của tiến sĩ Alfred Lanning, người tạo nên 3 điều luật của robot và đồng sáng lập của công ty U.S Robotics (USR) chuyên sản xuất robot và công nghệ robot. Cái chết của tiến sĩ Lanning xảy ra sau khi một thế hệ robot mới có tên NS-5 ra đời. Đây là một thế hệ robot tân tiến, được kết nối với một máy chủ có tên VIKL được đặt tại trụ sở của USR. Hiện trường cho thấy có vẻ như tiến sĩ Lanning vừa tự sát. Tuy nhiên, Spooner lại nghĩ khác và tiến hành điều tra lại. Với sự giúp đỡ của tiến sĩ Susan Calvin, một chuyên gia về tâm lí robot, Spooner kiểm tra văn phòng của Lanning và hướng tất cả sự nghi ngờ vào một con robot NS-5 có tên Sonny. Nhưng những gì mà anh phát hiện ra sau đó lại không hề đơn giản như vậy.





















Upfile.vn
Bấm vào đây để đăng nhập và xem link!
Bấm vào đây để đăng nhập và xem link!
Bấm vào đây để đăng nhập và xem link!
Bấm vào đây để đăng nhập và xem link!
Bấm vào đây để đăng nhập và xem link!
Bấm vào đây để đăng nhập và xem link! 1 Link - Tốc Độ Cao - Resume
Bấm vào đây để đăng nhập và xem link!

Lưu ý khi sử dụng

- Gặp Link download hỏng, hãy đăng trả lời (yêu cầu link download mới), Các MOD sẽ cập nhật link sớm nhất
- Tìm kiếm trước khi đăng bài mới

Chủ đề liên quan:
By mitinnaruto
Kết nối đề xuất: