By forevergiacmo
#555821 Resident Evil Retribution 2012 SWESUB.RC.720p.AC3-5.1-Robblowe - Vùng Đất Quỷ
Bấm vào đây để đăng nhập và xem link! Code: General
Unique ID : 208463883784506188652549911796680283332 (0x9CD4AF011713008F9DCDE802DD1CD4C4)
Complete name : E:\Resident.Evil.Retribution.2012.SWESUB.RC.720p.A C3-5.1-Robblowe\Resident.Evil.Retribution.2012.SWESUB.RC. 720p.AC3-5.1-Robblowe.mkv
Format : Matroska
Format phiên bản : phiên bản 2
File size : 3.28 GiB
Duration : 1h 31mn
Overall bit rate : 5 115 Kbps
Encoded date : UTC 2012-12-01 04:46:19
Writing application : mkvmerge v5.8.0 ('No Sleep / Pillow') built on Sep 2 2012 15:37:04
Writing library : libebml v1.2.3 + libmatroska v1.3.0


Video
ID : 1
Format : AVC
Format/Info : Advanced Video Codec
Format profile : [email protected]
Format settings, CABAC : No
Format settings, ReFrames : 4 frames
Format settings, GOP : M=1, N=12
Muxing mode : Header stripping
Codec ID : V_MPEG4/ISO/AVC
Duration : 1h 31mn
Bit rate : 4 629 Kbps
Width : 1 280 pixels
Height : 540 pixels
Display aspect ratio : 2.40:1
Original display aspect ratio : 16:9
Frame rate mode : Constant
Frame rate : 25.000 fps
Standard : PAL
Color space : YUV
Chroma subsampling : 4:2:0
Bit depth : 8 bits
Scan type : Progressive
Bits/(Pixel*Frame) : 0.268
Stream size : 2.96 GiB (91%)
Default : Yes
Forced : No
Color primaries : BT.601 PAL
Transfer characteristics : BT.470 System B, BT.470 System G
Matrix coefficients : BT.601


Audio
ID : 2
Format : AC-3
Format/Info : Audio Coding 3
Mode extension : CM (complete main)
Format settings, Endianness : Big
Muxing mode : Header stripping
Codec ID : A_AC3
Duration : 1h 31mn
Bit rate mode : Constant
Bit rate : 384 Kbps
Channel(s) : 6 channels
Channel positions : Front: L C R, Side: L R, LFE
Sampling rate : 48.0 KHz
Bit depth : 16 bits
Compression mode : Lossy
Stream size : 252 MiB (8%)
Default : Yes
Forced : No


Text
ID : 3
Format : UTF-8
Codec ID : S_TEXT/UTF8
Codec ID/Info : UTF-8 Plain Text
Default : Yes
Forced : No

Virus T của tập đoàn Umbrella tiếp tục tàn phá trái đất, làm biến đổi dân số toàn cầu và sự gia tăng của đội quân thây ma bất tử. Hy vọng cuối cùng và duy nhất của loài người, không ai khác chính là Alice. Những hoạt động bí mật (an ninh) của tổ chức Umbrella cùng với sự thật về quá khứ bí ẩn.


Mang trong mình dòng máu Trung Quốc, Ada Wong (Lý Băng Băng) là điệp viên bí mật (an ninh) Organization - tập đoàn đối nghịch với Umbrella. Ada cũng là một sát thủ được huấn luyện, có kỹ năng chiến đấu và khả năng sử dụng thành thạo nhiều loại vũ khí.

Trong Resident Evil 5 lần này, Ada Wong sẽ là nhân vật thứ chính, có nhiều đất diễn bên cạnh nhân vật Alice (Milla Jovovich).


Khán giả cũng sẽ được thấy một "quá khứ" khác của Alice, một Alice nữ tính, hạnh phúc bên chồng và con gái, trước khi trở thành chiến binh dũng mãnh trong cuộc chiến với thây ma và tập đoàn Umbrella.

Bấm vào đây để đăng nhập và xem link!
Bấm vào đây để đăng nhập và xem link!
Bấm vào đây để đăng nhập và xem link!
Bấm vào đây để đăng nhập và xem link!

Linkdown

1 link 3.28 Gb
Bấm vào đây để đăng nhập và xem link! Sub
Bấm vào đây để đăng nhập và xem link!


Lưu ý khi sử dụng

- Gặp Link download hỏng, hãy đăng trả lời (yêu cầu link download mới), Các MOD sẽ cập nhật link sớm nhất
- Tìm kiếm trước khi đăng bài mới

Chủ đề liên quan:
By magaret_d
By dongtran8885
#555855 Film này lạm dụng kỉ xảo nhiều. Nội dung thì sơ sài, cùng kiệt nàn. Coi xong thất vọng vãi. Không hay bằng các phần trước
By near_2806
#555892 đợi bản BlueRay ra rồi coi luôn , phim bm tấn mà coi = mấy bản thường này thì phí phạm lắm .
Kết nối đề xuất: