By spiderman_hqc
#553860 Love Actually - Tình Yêu Đích Thực (2003) 720p BRRip 750MB



Tên phim: Love Actually (2003)
Đạo diễn: Richard Curtis
Kịch bản: Richard Curtis
Thể loại: Comedy | Drama | Romance
IMDB: Xếp hạng: 7.7/10 - 177270 phiếu
Thời lượng: 135 mins
Ngôn ngữ: English | Portuguese | French
Quốc gia: UK | USA

Được tung ra đúng vào dịp Giáng sinh, "Love Actually " là một chiếc bánh Noel đa dạng dành cho nhiều người với nhiều thị hiếu sở KẾT khác nhau. Bộ phim được tạo nên từ tám câu chuyện lãng mạn và thú vị, được lồng ghép với nhau, tạo nên một bức tranh tuyệt cú đẹp.

Mối tình của một tân Thủ tướng nước Anh (Hugh Grant) phải lòng một cô gái pha trà tầm thường (Martine McCutcheon), hay tình yêu của một nhà văn đến từ miền Nam nước Pháp xa xôi mong hàn gắn lại mối tình vừa tan vỡ nhưng lại rơi vào một mối tình khác bên bờ hồ lãng mạn.


Từ một phụ nữ (Emma Thompson) nghi ngờ chồng mình bỏ trốn đến một cô dâu mới cưới (Keira Knightley) có chút hiểu lầm với bạn thân của chồng mình. Từ một cậu học sinh cố gắng gây ấn tượng với một cô bé nổi tiếng xinh đẹp và kiêu kỳ ở trường tới một ông bố dượng góa vợ (Liam Neeson) cố gắng nối lại quan hệ với con trai. Từ một người quản lý thất tình (Laura Linney) cân nhắc về chuyện thổ lộ tình cảm với một người cùng làm đến chuyện về ngôi sao hết thời (gian) (Bill Nighy) mong muốn có một sự trở lại thành công. Chính tình yêu là nguyên nhân gây ra tất cả sự rắc rối vừa đáng yêu vừa đáng ghét trong các câu chuyện này.




Code: Format : MPEG-4
Format profile : Base Media
Codec ID : isom
File size : 746 MiB
Duration : 2h 10mn
Overall bit rate mode : Variable
Overall bit rate : 802 Kbps
Encoded date : UTC 2010-10-22 02:09:34
Tagged date : UTC 2010-10-22 02:09:34

Video
ID : 1
Format : AVC
Format/Info : Advanced Video Codec
Format profile : [email protected]
Format settings, CABAC : Yes
Format settings, ReFrames : 8 frames
Codec ID : avc1
Codec ID/Info : Advanced Video Coding
Duration : 2h 10mn
Bit rate : 751 Kbps
Maximum bit rate : 6 309 Kbps
Width : 1 280 pixels
Height : 544 pixels
Display aspect ratio : 2.35:1
Frame rate mode : Constant
Frame rate : 23.976 fps
Color space : YUV
Chroma subsampling : 4:2:0
Bit depth : 8 bits
Scan type : Progressive
Bits/(Pixel*Frame) : 0.045
Stream size : 698 MiB (94%)
Title : Imported with GPAC 0.4.6-DEV (internal rev. 5)
Writing library : x264 core 98 r1649 c54c47d

Audio
ID : 2
Format : AAC
Format/Info : Advanced Audio Codec
Format profile : HE-AAC / LC
Codec ID : 40
Duration : 2h 10mn
Bit rate mode : Variable
Bit rate : 48.0 Kbps
Maximum bit rate : 56.1 Kbps
Channel(s) : 2 channels
Channel positions : Front: L R
Sampling rate : 44.1 KHz / 22.05 KHz
Compression mode : Lossy
Stream size : 44.6 MiB (6%)
Encoded date : UTC 2010-10-22 02:10:27
Tagged date : UTC 2010-10-22 02:10:31












Bấm vào đây để đăng nhập và xem link!

Vietsub: trong folder

* Một số phim về Giáng sinh khác:













... Update

Kết nối đề xuất: