By pc_lee2010
#553183 Charlie And The Chocolate Factory (2005) 720p BRRip


Willi Wonka (Johnny Depp) là một người sản xuất chocolate nổi tiếng nhất thế giới, mở một cuộc thi mà người thắng giải sẽ được vào tham quan nhà máy sản xuất chocolate của mình. Khi cậu bé Charlie Bucket mở gói kẹo chocolate và trở thành một trong những người trúng giải, và nhờ đó cậu bước vào một cuộc phiêu lưu thú vị, đầy màu sắc và ngọt ngào của những loại kẹo...


Nhà nghèo, cậu bé Charlie Bucket (Freddie Highmore) phải sớm lao động để giúp đỡ gia đình. Em luôn tiết kiệm từng xu nhỏ và không bao giờ mua nổi những thứ quà bánh mà đám trẻ con vẫn hằng ưa thích. Ao ước được ăn thật nhiều kẹo, em tham gia trò chơi may mắn của Willy Wonka (Johnny Depp), ông chủ nhà máy chocolate tuyệt cú diệu nhất thế giới. Wonka giấu 5 tấm vé vàng trong những thanh chocolate, ai tìm thấy những tấm vé này sẽ được thưởng một chuyến tham quan đặc biệt tại nhà máy chocolate. Charlie tìm được một vé và bắt đầu cuộc phiêu lưu kỳ diệu cùng 4 đứa trẻ khác. Đó là Veruca Salt, cô bé nhà giàu hư hỏng; Augustus Gloop, đứa trẻ háu ăn, luôn nhét kẹo đầy miệng; Violet Beauregarde, nhà vô địch nhai kẹo chewing gum và Mike Teevee, cậu bé nghiện TV và trò chơi video. Thế giới chocolate Wonka vừa mang lại biết bao ngạc nhiên KẾT thú cho lũ trẻ.



Code: Format : MPEG-4
Format profile : Base Media / phiên bản 2
Codec ID : mp42
File size : 909 MiB
Duration : 1h 55mn
Overall bit rate mode : Variable
Overall bit rate : 1 101 Kbps
Encoded date : UTC 2012-09-10 20:49:35
Tagged date : UTC 2012-09-10 23:09:13
Writing application : HandBrake 0.9.6 2012022800

Video
ID : 1
Format : AVC
Format/Info : Advanced Video Codec
Format profile : [email protected]
Format settings, CABAC : Yes
Format settings, ReFrames : 4 frames
Codec ID : avc1
Codec ID/Info : Advanced Video Coding
Duration : 1h 55mn
Bit rate mode : Variable
Bit rate : 1 000 Kbps
Width : 1 280 pixels
Height : 720 pixels
Display aspect ratio : 16:9
Original display aspect ratio : 16:9
Frame rate mode : Variable
Frame rate : 23.976 fps
Minimum frame rate : 23.974 fps
Maximum frame rate : 90 000.000 fps
Color space : YUV
Chroma subsampling : 4:2:0
Bit depth : 8 bits
Scan type : Progressive
Bits/(Pixel*Frame) : 0.045
Stream size : 825 MiB (91%)
Writing library : x264 core 120
Encoded date : UTC 2012-09-10 20:49:35
Tagged date : UTC 2012-09-10 23:09:13
Color primaries : BT.709
Transfer characteristics : BT.709
Matrix coefficients : BT.709

Audio
ID : 2
Format : AAC
Format/Info : Advanced Audio Codec
Format profile : LC
Codec ID : 40
Duration : 1h 55mn
Bit rate mode : Variable
Bit rate : 96.0 Kbps
Maximum bit rate : 182 Kbps
Channel(s) : 2 channels
Channel positions : Front: L R
Sampling rate : 48.0 KHz
Compression mode : Lossy
Delay relative to video : 83ms
Stream size : 79.2 MiB (9%)
Language : English
Encoded date : UTC 2012-09-10 20:49:35
Tagged date : UTC 2012-09-10 23:09:12










Bấm vào đây để đăng nhập và xem link!

Vietsub: trong folder

* Một số phim về Giáng sinh khác:








... Update


Lưu ý khi sử dụng

- Gặp Link download hỏng, hãy đăng trả lời (yêu cầu link download mới), Các MOD sẽ cập nhật link sớm nhất
- Tìm kiếm trước khi đăng bài mới

Chủ đề liên quan:
By kimbdoan
Kết nối đề xuất: