By toidangyeumot_thien_than
#553179 Elf ( 2003 ) 720p BRRip 600MB


Trong truyền thuyết, Elf chính là những người hầu cận của ông già Noel. Elf hay còn gọi là người lùn thường có nhiệm vụ sản xuất và đóng gói đồ chơi để mỗi dịp giáng sinh ông già Noel đem đi khắp thế giới trao tặng cho trẻ em. Bộ phim này khai thác sâu về nguồn gốc của nhân vật Elf. Buddy là một đứa trẻ bị bỏ rơi và được ông già Noel đem về nuôi dưỡng. Vì không có khiếu nuôi trẻ sơ sinh nên ông già Noel nhờ cậy đến Papa Elf chăm nom cho đứa trẻ. Buddy lớn lên trong tình yêu thương của gia đình nhưng cậu vẫn thấy lạc lõng bởi tất cả người trong gia đình đều chỉ cao tới đầu gối cậu. Sau này khi biết được sự thực Buddy vừa quay về Mỹ để tìm cha mẹ thật. Nhưng lần đầu đến với thế giới hiện thực xa hoa, Buddy cảm giác dường như con người ở thế giới thực vừa quên đi những ý nghĩa thiêng liêng của lễ giáng sinh. Bằng sự chân thật của mình, Buddy vừa chinh phục không chỉ cha mẹ thật mà còn quen được 1 cô bạn gái xinh xắn. Elf là một bộ phim về giáng sinh không chỉ hài hước mà còn rất xúc động. Nam diễn viên hài Will Ferrell thủ vai nhân vật Buddy



Code: Format : MPEG-4
Format profile : Base Media
Codec ID : isom
File size : 602 MiB
Duration : 1h 36mn
Overall bit rate mode : Variable
Overall bit rate : 870 Kbps
Encoded date : UTC 2011-12-06 10:33:06
Tagged date : UTC 2011-12-06 10:33:06

Video
ID : 1
Format : AVC
Format/Info : Advanced Video Codec
Format profile : [email protected]
Format settings, CABAC : Yes
Format settings, ReFrames : 5 frames
Codec ID : avc1
Codec ID/Info : Advanced Video Coding
Duration : 1h 36mn
Bit rate : 834 Kbps
Maximum bit rate : 4 203 Kbps
Width : 1 280 pixels
Height : 720 pixels
Display aspect ratio : 16:9
Frame rate mode : Constant
Frame rate : 23.976 fps
Color space : YUV
Chroma subsampling : 4:2:0
Bit depth : 8 bits
Scan type : Progressive
Bits/(Pixel*Frame) : 0.038
Stream size : 577 MiB (96%)
Writing library : x264 core 116 r2074 2641b9

Audio
ID : 2
Format : AAC
Format/Info : Advanced Audio Codec
Format profile : HE-AAC / LC
Codec ID : 40
Duration : 1h 36mn
Bit rate mode : Variable
Bit rate : 33.0 Kbps
Maximum bit rate : 55.8 Kbps
Channel(s) : 2 channels
Channel positions : Front: L R
Sampling rate : 48.0 KHz / 24.0 KHz
Compression mode : Lossy
Stream size : 22.8 MiB (4%)
Encoded date : UTC 2011-12-06 10:33:16
Tagged date : UTC 2011-12-06 10:33:16










Bấm vào đây để đăng nhập và xem link!

Vietsub: trong folder

* Một số phim về Giáng sinh khác:








... Update


Lưu ý khi sử dụng

- Gặp Link download hỏng, hãy đăng trả lời (yêu cầu link download mới), Các MOD sẽ cập nhật link sớm nhất
- Tìm kiếm trước khi đăng bài mới

Chủ đề liên quan:
By kao_bzo
By bi_86
#553223 bác này sưu tầm toàn phim giáng sinh hay nhể
Kết nối đề xuất: