By 12_43
#552022 Cloudy With A Chance Of Meatballs - Cơn Mưa Thịt Viên BRRip [550 MB]


Bộ phim nói về Flint Lockwood, một nhà sáng chế trẻ vô cùng dễ thương, sống độc thân cùng chú khỉ lém lỉnh Steve. Anh vừa quyết định không theo nghề bán cà mòi truyền thống mấy đời của gia đình Lockwood mà lại đâm đầu vào phòng thí nghiệm với những phát mình vô cùng “tai hại”.

Những phát minh của anh như chiếc Remote-Control Television, Hair Un-Balder, Flying Car và RatBirds đều là những sản phẩm “quái dị” và chẳng thể nào ứng dụng gì vào trong thực tế. Thế nhưng chỉ với một phát minh duy nhất, anh vừa được cả thị trấn tung hô và tôn làm người hùng: đó chính là chiếc máy “biến nước thành thức ăn” mà anh vừa dày công nghiên cứu.

Chiếc máy vừa giúp thị trấn Swallow Falls thoát khỏi cơn đói kinh niên do quanh khu vực này chỉ toàn là biển và nguồn thức ăn chính là những con cá mòi bé xíu. Từ đó thị trấn được đổi tên từ Swallow Falls (Rơi nước miếng) thành ChewAndSwallow (Nhai Rồi Nuốt) và du khách cũng kéo tới đây nhiều hơn để “hưởng thụ” đồ ăn miễn phí.

Chiếc máy chế biến thức ăn sau khi được phóng lên bầu trời vừa tạo ra một cơn mưa đồ ăn tuyệt cú vời xuống thành phố Snow Falls và khiến cả thành phố phải sửng sốt. Những chiếc hamburger, kem cốc cực lớn, bánh donut, xúc xích khổng lồ… từ đó liên tục cung cấp thức ăn cho thị trấn trên biển này và một quãng thời (gian) gian hạnh phúc nhất từ trước tới nay. Thế nhưng tai họa bắt đầu xảy ra khi Flint phát hiện ra rằng cỗ máy chế biến thức ăn ấy có khả năng suy nghĩ riêng và nó đang có ý định làm “lụt” cả thế giới trong một đống đồ ăn thức uống khổng lồ. Do đó, Flint vừa quyết định tìm ra cách để khống chế cỗ máy và giúp cả thế giới tránh khỏi một thảm họa kinh hoàng.



Code: Format : MPEG-4
Format profile : Base Media
Codec ID : isom
File size : 551 MiB
Duration : 1h 29mn
Overall bit rate mode : Variable
Overall bit rate : 857 Kbps
Encoded date : UTC 2012-03-20 01:38:18
Tagged date : UTC 2012-03-20 01:38:18

Video
ID : 1
Format : AVC
Format/Info : Advanced Video Codec
Format profile : High@L3.1
Format settings, CABAC : Yes
Format settings, ReFrames : 5 frames
Codec ID : avc1
Codec ID/Info : Advanced Video Coding
Duration : 1h 29mn
Bit rate : 790 Kbps
Maximum bit rate : 7 813 Kbps
Width : 1 280 pixels
Height : 544 pixels
Display aspect ratio : 2.35:1
Frame rate mode : Constant
Frame rate : 23.976 fps
Color space : YUV
Chroma subsampling : 4:2:0
Bit depth : 8 bits
Scan type : Progressive
Bits/(Pixel*Frame) : 0.047
Stream size : 508 MiB (92%)
Writing library : x264 core 120 r2164 da19765
Encoding settings : cabac=1 / ref=5 / deblock=1:-2:-1 / analyse=0x3:0x113 / me=umh / subme=8 / psy=1 / psy_rd=1.00:0.00 / mixed_ref=1 / me_range=16 / chroma_me=1 / trellis=1 / 8x8dct=1 / cqm=0 / deadzone=21,11 / fast_pskip=1 / chroma_qp_offset=-2 / threads=12 / sliced_threads=0 / nr=0 / decimate=1 / interlaced=0 / bluray_compat=0 / constrained_intra=0 / bframes=3 / b_pyramid=2 / b_adapt=2 / b_bias=0 / direct=3 / weightb=1 / open_gop=0 / weightp=2 / keyint=240 / keyint_min=23 / scenecut=40 / intra_refresh=0 / rc_lookahead=50 / rc=2pass / mbtree=1 / bitrate=790 / ratetol=1.0 / qcomp=0.60 / qpmin=10 / qpmax=51 / qpstep=4 / cplxblur=20.0 / qblur=0.5 / ip_ratio=1.40 / aq=1:1.00
Encoded date : UTC 2012-03-20 01:38:18
Tagged date : UTC 2012-03-20 01:41:42

Audio
ID : 2
Format : AAC
Format/Info : Advanced Audio Codec
Format profile : HE-AAC / LC
Codec ID : 40
Duration : 1h 29mn
Bit rate mode : Variable
Bit rate : 64.0 Kbps
Maximum bit rate : 72.0 Kbps
Channel(s) : 2 channels
Channel positions : Front: L R
Sampling rate : 48.0 KHz / 24.0 KHz
Compression mode : Lossy
Stream size : 41.1 MiB (7%)
Encoded date : UTC 2012-03-20 01:41:40
Tagged date : UTC 2012-03-20 01:41:42










Download
Bấm vào đây để đăng nhập và xem link!

Vietsub: trong folder


Lưu ý khi sử dụng

- Gặp Link download hỏng, hãy đăng trả lời (yêu cầu link download mới), Các MOD sẽ cập nhật link sớm nhất
- Tìm kiếm trước khi đăng bài mới

Chủ đề liên quan:
Kết nối đề xuất: