Forum chuyên dành cho các bạn thích chém gió, chia sẻ truyện cười, phim hài, phim hoạt hình....
Nội quy chuyên mục: Forum chuyên dành cho các bạn thích chém gió, chia sẻ truyện cười, phim hài, phim hoạt hình....
By traitimchanthanh_vnn
#500208 Bấm vào đây để đăng nhập và xem link!
Bấm vào đây để đăng nhập và xem link!

Info:
Code: General
Format : MPEG-4
Format profile : Base Media
Codec ID : isom
File size : 136 MiB
Duration : 23mn 51s
Overall bit rate : 798 Kbps
Encoded date : UTC 2012-04-06 17:55:42
Tagged date : UTC 2012-04-06 17:55:42
Writing application : Yamb 2.1.0.0 [http://yamb.unite-video.com]

Video
ID : 1
Format : AVC
Format/Info : Advanced Video Codec
Format profile : [email protected]
Format settings, CABAC : No
Format settings, ReFrames : 4 frames
Codec ID : avc1
Codec ID/Info : Advanced Video Coding
Duration : 23mn 51s
Bit rate mode : Variable
Bit rate : 700 Kbps
Maximum bit rate : 1 057 Kbps
Width : 512 pixels
Height : 384 pixels
Display aspect ratio : 4:3
Frame rate mode : Constant
Frame rate : 25.000 fps
Color space : YUV
Chroma subsampling : 4:2:0
Bit depth : 8 bits
Scan type : Progressive
Bits/(Pixel*Frame) : 0.142
Stream size : 119 MiB (88%)
Writing library : x264 core 122 r2184 5c85e0a

Encoded date : UTC 2012-04-07 17:37:40
Tagged date : UTC 2012-04-06 17:55:43

Audio
ID : 2
Format : AAC
Format/Info : Advanced Audio Codec
Format profile : LC
Codec ID : 40
Duration : 23mn 51s
Bit rate mode : Variable
Bit rate : 96.0 Kbps
Maximum bit rate : 105 Kbps
Channel(s) : 2 channels
Channel positions : Front: L R
Sampling rate : 44.1 KHz
Compression mode : Lossy
Stream size : 16.4 MiB (12%)
Encoded date : UTC 2012-04-06 17:55:43
Tagged date : UTC 2012-04-06 17:55:43 Screenshot:
Bấm vào đây để đăng nhập và xem link! Bấm vào đây để đăng nhập và xem link! Bấm vào đây để đăng nhập và xem link! Bấm vào đây để đăng nhập và xem link! Bấm vào đây để đăng nhập và xem link! Bấm vào đây để đăng nhập và xem link!


Link download:
Code: http://www.fshare.vn/folder/T8Q4VK46VT/ Nguồn: all.hdvnbits.org
Kết nối đề xuất:
Thành ngữ tiếng Anh có chứa die
Advertisement
Advertisement