Forum chuyên dành cho các bạn thích chém gió, chia sẻ truyện cười, phim hài, phim hoạt hình....
Nội quy chuyên mục: Forum chuyên dành cho các bạn thích chém gió, chia sẻ truyện cười, phim hài, phim hoạt hình....
By Culvanawd
#470309 Hotarubi no mori e 2011 [BDrip 720p AC3]
Bên trong khu rừng đom đóm



IMDb
Bấm vào đây để đăng nhập và xem link!

Info

Code: General
Complete name : D:\Hotarubi no Mori e [BDrip 720p AC3]\Hotarubi no Mori e [BDrip 720p AC3].mkv
Format : Matroska
File size : 712 MiB
Duration : 44mn 59s
Overall bit rate : 2 214 Kbps
Encoded date : UTC 2012-02-22 18:04:44
Writing application : mkvmerge v5.3.0 ('I could have danced') built on Feb 9 2012 10:38:07
Writing library : libebml v1.2.3 + libmatroska v1.3.0

Video
ID : 1
Format : AVC
Format/Info : Advanced Video Codec
Format profile : [email protected]
Format settings, CABAC : Yes
Format settings, ReFrames : 3 frames
Muxing mode : Container [email protected]
Codec ID : V_MPEG4/ISO/AVC
Duration : 44mn 59s
Bit rate : 1 530 Kbps
Width : 1 280 pixels
Height : 720 pixels
Display aspect ratio : 16:9
Frame rate : 23.976 fps
Color space : YUV
Chroma subsampling : 4:2:0
Bit depth : 8 bits
Scan type : Progressive
Bits/(Pixel*Frame) : 0.069
Stream size : 492 MiB (69%)
Writing library : x264 core 119 r2106 07efeb4
Encoding settings : cabac=1 / ref=3 / deblock=1:1:1 / analyse=0x3:0x113 / me=hex / subme=7 / psy=1 / psy_rd=0.40:0.00 / mixed_ref=1 / me_range=16 / chroma_me=1 / trellis=1 / 8x8dct=1 / cqm=0 / deadzone=21,11 / fast_pskip=1 / chroma_qp_offset=-2 / threads=4 / sliced_threads=0 / nr=0 / decimate=1 / interlaced=0 / bluray_compat=0 / constrained_intra=0 / bframes=6 / b_pyramid=0 / b_adapt=1 / b_bias=0 / direct=1 / weightb=1 / open_gop=0 / weightp=2 / keyint=250 / keyint_min=23 / scenecut=40 / intra_refresh=0 / rc_lookahead=40 / rc=crf / mbtree=1 / crf=15.0 / qcomp=0.60 / qpmin=0 / qpmax=69 / qpstep=4 / vbv_maxrate=35000 / vbv_bufsize=25000 / crf_max=0.0 / nal_hrd=none / ip_ratio=1.40 / aq=1:0.70

Audio
ID : 2
Format : AC-3
Format/Info : Audio Coding 3
Mode extension : CM (complete main)
Codec ID : A_AC3
Duration : 44mn 59s
Bit rate mode : Constant
Bit rate : 640 Kbps
Channel(s) : 2 channels
Channel positions : Front: L R
Sampling rate : 48.0 KHz
Bit depth : 16 bits
Stream size : 206 MiB (29%)
Language : Japanese Trailer



Giới thiệu


:: Tựa đề chính: Hotarubi no Mori e

:: Tựa đề tiếng Nhật: 蛍火の杜へ

:: Tựa đề tiếng Việt: Bên trong khu rừng đom đóm

:: Loại phim: Movie, 1 tập

:: Năm phát hành: 17.09.2011

:: Thời lượng: 45 mins

:: Thể loại: Daily Life, Fantasy, Manga, Romance


Chuyển thể từ manga cùng tên, câu chuyện "Hotarubi no Mori e" xoay quanh Hotaru, một cô bé 6 tuổi bị lạc trong khu rừng nơi người ta đồn có yêu ma sinh sống. Cô gặp Gin, một chàng trai bí ẩn mang một chiếc mặt nạ.


Hai người, một lớn một bé, làm bạn với nhau, chơi đùa vui vẻ bên nhau suốt những ngày hè. Nhưng Hotaru không được phép chạm vào Gin, vì như thế Gin "sẽ biến mất".


Sau một, hai, rồi ba... mùa hè trôi qua. Hotaru nhận ra cô vừa yêu Gin.


"Một thứ sẽ biến mất nếu chạm tới... Giống như tuyết phải không nhỉ?"


Mối tình mỏng manh ngắn ngủi như bông tuyết lạnh lẽo mùa đông, yếu ớt như ánh sáng le lói của đom đóm mùa hè... liệu sẽ kéo dài được bao lâu...


Bên trong khu rừng đom đóm, bạn sẽ tìm thấy được câu trả lời... Có lẽ thế...

Screenshot






















Part 1: Bấm vào đây để đăng nhập và xem link!

Part 2: Bấm vào đây để đăng nhập và xem link!

Part 3: Bấm vào đây để đăng nhập và xem link!

Part 4: Bấm vào đây để đăng nhập và xem link! Subtittles

Bấm vào đây để đăng nhập và xem link! P/s: Part 1 khi down về bị đổi tên thành "Hotarubi no Mori e [BDrip 720p AC3].mkv_2.001" thì xóa phần bôi đen đi rồi ghép lại như bình thường


Chúc tất cả người xem phim vui vẻ!

Lưu ý khi sử dụng

- Gặp Link download hỏng, hãy đăng trả lời (yêu cầu link download mới), Các MOD sẽ cập nhật link sớm nhất
- Tìm kiếm trước khi đăng bài mới

Chủ đề liên quan:
By minhtuan_29
By wi_wi
#470352 boypro911 xé tem

chưa xem nhưng cũng thanks ,thích xem mấy phim đánh lộn hơn Chưa xem thì xem đi, hay mà, xem nhiều thể loại cho phong phú
Kết nối đề xuất:
Learn Synonym
Advertisement