Forum chuyên dành cho các bạn thích chém gió, chia sẻ truyện cười, phim hài, phim hoạt hình....
Nội quy chuyên mục: Forum chuyên dành cho các bạn thích chém gió, chia sẻ truyện cười, phim hài, phim hoạt hình....
By money_nt
#449408 Na Tra Truyền Kỳ [HTV3 Long Tieng]

The Legend Of Nezha (52/52tập) (2011)


Na tra là cậu bé rất tinh nghịch, nhưng chí khí, tâm tính thiện lương, luôn hướng về chính nghĩa
Tên phim: Na Tra Truyền Kỳ HTV3 ***g Tiếng - The Legend Of Nezha (52/52) (2011)
Thể loại: Phim Hoạt Hình
Thời lượng: 52 tập
Audio: HTV3 ***g Tiếng
Năm Phát Hành: 2011


Code: Format : MPEG-PS
File size : 563 MiB
Duration : 21mn 53s
Overall bit rate : 3 594 Kbps

Video
ID : 224 (0xE0)
Format : MPEG Video
Format phiên bản : phiên bản 2
Format profile : [email protected]
Format settings, BVOP : Yes
Format settings, Matrix : Default
Duration : 21mn 53s
Bit rate mode : Variable
Bit rate : 3 343 Kbps
Width : 720 pixels
Height : 576 pixels
Display aspect ratio : 4:3
Frame rate : 25.000 fps
Standard : PAL
Color space : YUV
Chroma subsampling : 4:2:0
Bit depth : 8 bits
Scan type : Interlaced
Scan order : Top Field First
Compression mode : Lossy
Bits/(Pixel*Frame) : 0.322
Stream size : 522 MiB (93%)

Audio
ID : 192 (0xC0)
Format : MPEG Audio
Format phiên bản : phiên bản 1
Format profile : Layer 2
Duration : 21mn 53s
Bit rate mode : Constant
Bit rate : 192 Kbps
Channel(s) : 2 channels
Sampling rate : 44.1 KHz
Compression mode : Lossy
Stream size : 30.1 MiB (5%) (Phim) - Đó là câu chuyện về cậu bé người trời tài hoa xuất chúng, vừa có hàng loạt chiến tích lẫy lừng mang đến cuộc sống ấm no, thanh bình cho người dân Trung Hoa.


Trên truyền hình hiện nay, các khán giả nhí vừa khá quen thuộc những bộ phim hoạt hình phương Tây với hình ảnh siêu nhân, người hùng rô-bốt, cùng những kỹ xảo hấp dẫn. Nhưng điều đó không thể nói rằng làng hoạt hình phương Đông yếu thế hơn bởi sự xuất hiện của hàng loạt những bộ phim dễ thương, trong đó phải kế đến bộ phim hoạt hình Na Tra truyền kỳ của Trung Quốc.


Trong dân gian Trung Hoa vẫn lưu truyền câu chuyện về cậu bé người trời tài hoa xuất chúng, vừa có hàng loạt chiến tích lẫy lừng mang đến cuộc sống ấm no, thanh bình cho người dân Trung Hoa.


Na Tra hiện thân vốn là Linh Châu Tử, đồ đệ của Thái Ất Chân Nhân trên thượng giới, do phạm phải luật trời, để Hồ Ly ngàn năm ăn trộm đào tiên nên bị giáng xuống trần gian chịu khổ. Khi đầu thai làm con trai của Lý Tình, hình tượng Na Tra tại trần thế được xây dựng bởi hàng loạt những truyền thuyết thú vị: Cậu bé được sinh ra từ một cái bọc, từ cái bọc nở ra một đứa trẻ khôi ngô tuấn tú, tay cầm Càn Khôn Quyền, lưng quấn dải lụa Hỗn Thiên Lăng... Điều đặc biệt là cậu bé lớn rất nhanh, mới bảy tuổi vừa mình cao sáu thước, vai rộng lớn hai thước.


Ngay từ nhỏ Na tra vừa là một cậu bé rất ngỗ nghịch, nhưng cũng có nhiều người quý mến cậu bé bởi chí khí, tâm tính thiện lương, luôn hướng về chính nghĩa. Trong triều đình bỗng dưng xuất hiện con cáo chín đuôi - Đát Kỉ - vừa mê hay Trụ Vương, khiến Trụ Vương bỏ bê chuyện nước, dân chúng lầm than, đất nước suy yếu... Nhưng không may, khi chưa kịp ra tay diệt yêu quái, Na Tra vừa rơi vào cạm bẫy của Đát Kỉ khiến cậu bé và người cha Lý Tịnh bất hoà...


Na Tra ra sức trừ gian diệt tà nhằm đem đến cuộc sống thanh bình cho người dân

Việc trước mắt là dẹp yêu quái để mang đến cuộc sống thanh bình cho người dân, Na Tra vừa quyết định phải cố gắng tầm sư học đạo để tăng cường tài phép của mình. Những người thầy, người bạn đồng môn Tiểu Long Nữ, cùng người anh em ba mắt Dương Tiễn vừa ra tay giúp đỡ Na Tra như thế nào để cậu bé hoàn thành sứ mệnh trừ gian diệt ác của mình? Hành trình đấu tranh với cái ác cái xấu của Na Tra sẽ ra sao?


Bộ phim hoạt hình Na Tra truyền kỳ kể về nhân vật truyền thuyết nổi tiếng của Trung Hoa - Na Tra - sẽ lần lượt giải đáp những thắc mắc này cho các khán giả nhí. Đồng thời, đây còn là một sự lựa chọn tốt các bậc phụ huynh để bổ sung vào những món ăn tinh thần cho con em mình: Những cảnh quay dễ thương, cốt truyện không quá bạo lực lại mang tính giáo dục cao về đức tính lương thiện và luôn đấu tranh với cái ác, bảo vệ điều thiện...



Code: http://www.fshare.vn/folder/TG5CB8370T
By Underwear_daquang
#449446 mình đang tìm film này, nhưng rất tiếc không biết làm thế nào để download về được.

Chủ topic có lòng thì up luôn qua MF luôn nha, Thank trước.
Kết nối đề xuất:
Thành ngữ tiếng Anh có chứa die
Advertisement
Advertisement