Forum chuyên dành cho các bạn thích chém gió, chia sẻ truyện cười, phim hài, phim hoạt hình....
Nội quy chuyên mục: Forum chuyên dành cho các bạn thích chém gió, chia sẻ truyện cười, phim hài, phim hoạt hình....
By minhhoanganhminh
#652282 Dragon Ball Z: Battle of Gods (2013) 720p / 1080p BDRip
Cuộc Chiến Của Các Vị Thần



Thời lượng: 85 phút

Tác giả: Akira Toriyama

Đạo diễn: Masahiro Hosoda

Kịch bản: Yusuke Watanabe

Tham gia sản xuất: Bird Studio, Toei Animation, Fox International Productions Japan, Shueisha, Fuji TV, Bandai, and Namco Bandai Games

Diễn viên: Masako Nozawa, Shigeru Chiba, Hiroko Emori, Kôichi Yamadera....

Language : Nhật Bản

Thời gian phát hành: 2013

Thể loại: Hoạt Hình

IMDb : 8.9/10


Bối cảnh phim diễn ra vài năm sau cuộc chiến đánh bại Majin-Buu. Birusu, vị thần hủy diệt duy trì trạng thái cân bằng cho vũ trụ đã thức dậy sau một giấc ngủ dài. Nghe tin đồn rằng có một Saiyan đã đánh bại Freeza, Birusu lập tức đi tìm Goku.

Sau một thời gian dài không có đối thủ mạnh, Goku bỏ qua lời khuyên của King Kai và thách thức Birusu trong một trận chiến. Tuy nhiên, Goku không đủ mạnh trước sức mạnh áp đảo của Birusu và đã bị đánh bại. Birusu bỏ đi sau khi thốt lên rằng, “Có kẻ nào đó trên Trái Đất xứng đáng để tiêu diệt?”. Các nhân vật chính phải cùng nhau luyện tập để chiến đấu trước khi bị tiêu diệt


Dragon Ball Z The Movie Battle of Gods (1280 × 720 AVC BD AACx2 [2.0 +5.1]) Code: Format : MPEG-4
Format profile : Base Media / phiên bản 2
Codec ID : mp42
File size : 1.37 GiB
Duration : 1h 25mn
Overall bit rate mode : Variable
Overall bit rate : 2 305 Kbps
Encoded date : UTC 2013-09-13 10:34:30
Tagged date : UTC 2013-09-13 10:34:30

Video
ID : 1
Format : AVC
Format/Info : Advanced Video Codec
Format profile : [email protected]
Format settings, CABAC : Yes
Format settings, ReFrames : 6 frames
Codec ID : avc1
Codec ID/Info : Advanced Video Coding
Duration : 1h 25mn
Bit rate : 1 816 Kbps
Maximum bit rate : 14.7 Mbps
Width : 1 280 pixels
Height : 720 pixels
Display aspect ratio : 16:9
Frame rate mode : Constant
Frame rate : 23.976 fps
Color space : YUV
Chroma subsampling : 4:2:0
Bit depth : 8 bits
Scan type : Progressive
Bits/(Pixel*Frame) : 0.082
Stream size : 1.08 GiB (79%)
Title : Video
Encoded date : UTC 2013-09-13 02:23:54
Tagged date : UTC 2013-09-13 10:35:21

Audio #1
ID : 2
Format : AAC
Format/Info : Advanced Audio Codec
Format profile : LC
Codec ID : 40
Duration : 1h 25mn
Bit rate mode : Variable
Bit rate : 128 Kbps
Maximum bit rate : 209 Kbps
Channel(s) : 2 channels
Channel positions : Front: L R
Sampling rate : 48.0 KHz
Compression mode : Lossy
Delay relative to video : 83ms
Stream size : 77.9 MiB (6%)
Title : Audio
Encoded date : UTC 2013-09-13 10:32:03
Tagged date : UTC 2013-09-13 10:35:21

Audio #2
ID : 3
Format : AAC
Format/Info : Advanced Audio Codec
Format profile : LC
Codec ID : 40
Duration : 1h 25mn
Bit rate mode : Variable
Bit rate : 353 Kbps
Maximum bit rate : 530 Kbps
Channel(s) : 6 channels
Channel positions : Front: L C R, Side: L R, LFE
Sampling rate : 48.0 KHz
Compression mode : Lossy
Delay relative to video : 83ms
Stream size : 216 MiB (15%)
Title : Audio
Encoded date : UTC 2013-09-13 02:23:56
Tagged date : UTC 2013-09-13 10:35:21






720p:
Code: part 1(1gb): https://mega.co.nz/#!tYxm0TwR!HTxpWXt3_Hm-oR7Cc1DS5CSxqH8mj4jwpJmNcw8FL7o
part 2(400mb): https://mega.co.nz/#!hdZyVLDB!dM8DgSDbC2osLcPaCGjXsXY6EN5CJ5fhYlvvQzY9QuM 1080p:
Code: part 1(1gb): https://mega.co.nz/#!hdJ1QaLa!am-GvVBFnEnmP9Ddl_F50yrhRRMP3qc9kRjZnoABx2o
part 2(1gb): https://mega.co.nz/#!8dpxkILZ!R-S6JwKEhWtVIvp8d5TWPnYv1xA8XCGbaEmj_UKSuEM
part 3(145mb): https://mega.co.nz/#!xZwHER5L!PbHbLQDpG_d2qB5kLtSV0Rti4nxgiM4eQB4rh3Z8_MA

Coming son...

Pass unrar
Code: www.intercambiosvirtuales.org
Code: Nguồn : http://www.intercambiosvirtuales.org/
By vh_gmai
Kết nối đề xuất:
Thành ngữ tiếng Anh có chứa die
Advertisement
Advertisement