Forum chuyên dành cho các bạn thích chém gió, chia sẻ truyện cười, phim hài, phim hoạt hình....
Nội quy chuyên mục: Forum chuyên dành cho các bạn thích chém gió, chia sẻ truyện cười, phim hài, phim hoạt hình....
By bedieuratchilachanh
#647065 Ốc đảo của Oscar - 78 tập


Đây là một phim hoạt hình vui nhộn kể về cuộc sống của một chú thằn lằn tên là Oscar


Code: Format : AVI
Format/Info : Audio Video Interleave
File size : 108 MiB
Duration : 7mn 5s
Overall bit rate : 2 133 Kbps
Writing application : VirtualDubMod 1.5.10.3 | Bấm vào đây để đăng nhập và xem link! || (build 2550/release)
Writing library : VirtualDubMod build 2550/release

Video
ID : 0
Format : MPEG-4 Visual
Format profile : Advanced [email protected]
Format settings, BVOP : 1
Format settings, QPel : No
Format settings, GMC : No warppoints
Format settings, Matrix : Default (MPEG)
Codec ID : XVID
Codec ID/Hint : XviD
Duration : 7mn 5s
Bit rate : 1 899 Kbps
Width : 1280 pixels
Height : 720 pixels
Display aspect ratio : 16:9
Frame rate : 25.000 fps
Color space : YUV
Chroma subsampling : 4:2:0
Bit depth : 8 bits
Scan type : Progressive
Compression mode : Lossy
Bits/(Pixel*Frame) : 0.264
Stream size : 96.2 MiB (89%)
Writing library : XviD 1.2.1 (UTC 2008-12-04)

Audio
ID : 1
Format : AC-3
Format/Info : Audio Coding 3
Mode extension : CM (complete main)
Format settings, Endianness : Big
Codec ID : 2000
Duration : 7mn 4s
Bit rate mode : Constant
Bit rate : 224 Kbps
Channel(s) : 2 channels
Channel positions : Front: L R
Sampling rate : 48.0 KHz
Bit depth : 16 bits
Compression mode : Lossy
Stream size : 11.3 MiB (11%)
Alignment : Split accross interleaves
Interleave, duration : 40 ms (1.00 video frame)
Interleave, preload duration : 500 ms

Link download Fshare - 78 Tập - 720p:
Code: http://www.fshare.vn/folder/SS25T4RGYE/
Kết nối đề xuất:
Nơi này có anh English Lyrics
Synonym dictionary
Advertisement
Advertisement