Forum chuyên dành cho các bạn thích chém gió, chia sẻ truyện cười, phim hài, phim hoạt hình....
Nội quy chuyên mục: Forum chuyên dành cho các bạn thích chém gió, chia sẻ truyện cười, phim hài, phim hoạt hình....
By yon.koolboiz
#638542 Tiếp nối seri film gắn liền với tuổi thơ thế hệ 8x, 9x. Lần này mình giới thiệu với các bạn phần 2: Popeye The Sailor - Thủy thủ Popeye

Phần 1: Tom and Jerry các bạn xem


Chàng thuỷ thủ tài ba Popeye một nhân vật truyện tranh và hoạt hình đáng yêu do họa sĩ Elzie Segar sáng tạo và lần đầu tiên xuất hiện như nhân vật phụ trong loạt truyện tranh dài kỳ Thimble Theatre năm 1929.

Bộ phim hoạt hình nổi tiếng một thời với 3 nhân vật chính: Popeye thủy thủ, nàng Olive xinh đẹp tính tình sớm nắng chiều mưa và Bluto luôn tìm mọi cách để chiếm được trái tim nàng Olive.Nhưng rồi Popeye luôn chiến thắng dưới sự giúp đỡ của rau chân vịt.............




Info
Code: Format : AVI
Format/Info : Audio Video Interleave
Duration : 6mn 43s
Overall bit rate mode : Variable
Overall bit rate : 1 441 Kbps
Writing application : VirtualDubMod 1.5.10.2 (build 2540/release)
Writing library : VirtualDubMod build 2540/release
Video #0
ID : 0
Format : MPEG-4 Visual
Format profile : Advanced [email protected]
Format settings, BVOP : 2
Format settings, QPel : No
Format settings, GMC : No warppoints
Format settings, Matrix : Default (H.263)
Muxing mode : Packed bitstream
Codec ID : XVID
Codec ID/Hint : XviD
Duration : 6mn 43s
Bit rate : 1 341 Kbps
Width : 560 pixels
Height : 400 pixels
Display aspect ratio : 1.400
Frame rate : 23.976 fps
Color space : YUV
Chroma subsampling : 4:2:0
Bit depth : 8 bits
Scan type : Progressive
Compression mode : Lossy
Bits/(Pixel*Frame) : 0.250
Stream size : 64.5 MiB (93%)
Writing library : XviD 1.2.1 (UTC 2008-12-04)
Audio #1
ID : 1
Format : MPEG Audio
Format phiên bản : phiên bản 1
Format profile : Layer 3
Codec ID : 55
Codec ID/Hint : MP3
Duration : 6mn 43s
Bit rate mode : Variable
Bit rate : 86.8 Kbps
Minimum bit rate : 32.0 Kbps
Channel(s) : 1 channel
Sampling rate : 48.0 KHz
Compression mode : Lossy
Stream size : 4.17 MiB (6%)
Alignment : Aligned on interleaves
Interleave, duration : 24 ms (0.58 video frame)
Interleave, preload duration : 212 ms
Writing library : LAME3.98
Encoding settings : -m m -V 4 -q 0 -lowpass 17.5 --vbr-new -b 32 Download
Bấm vào đây để đăng nhập và xem link!

Đã update đủ 230 tập.

Lưu ý khi sử dụng

- Gặp Link download hỏng, hãy đăng trả lời (yêu cầu link download mới), Các MOD sẽ cập nhật link sớm nhất
- Tìm kiếm trước khi đăng bài mới

Chủ đề liên quan:
Advertisement
Kết nối đề xuất:
Nơi này có anh English Lyrics
Synonym dictionary
Advertisement
Advertisement