Forum chuyên dành cho các bạn thích chém gió, chia sẻ truyện cười, phim hài, phim hoạt hình....
Nội quy chuyên mục: Forum chuyên dành cho các bạn thích chém gió, chia sẻ truyện cười, phim hài, phim hoạt hình....
By n0jay_c0ajy3uanhnhu3m108
#591387 Lavar - Ấu trùng tinh nghịch - 20 tập chất lượng 720p




Code: General
Complete name : LARVA - Cartoons funny\LARVA - Ice Road.mp4
Format : MPEG-4
Format profile : Base Media / phiên bản 2
Codec ID : mp42
File size : 21.7 MiB
Duration : 2mn 0s
Overall bit rate mode : Variable
Overall bit rate : 1 520 Kbps
Encoded date : UTC 2011-11-25 04:19:41
Tagged date : UTC 2011-11-25 04:19:41
gsst : 0
gstd : 120093
gssd : B7DEA3504MH1324974595749241
gshh : o-o.preferred.viettel-sgn1.v15.lscache3.c.youtube.com

Video
ID : 1
Format : AVC
Format/Info : Advanced Video Codec
Format profile : [email protected]
Format settings, CABAC : Yes
Format settings, ReFrames : 1 frame
Format settings, GOP : M=1, N=30
Codec ID : avc1
Codec ID/Info : Advanced Video Coding
Duration : 2mn 0s
Bit rate : 1 366 Kbps
Maximum bit rate : 4 392 Kbps
Width : 1 280 pixels
Height : 720 pixels
Display aspect ratio : 16:9
Frame rate mode : Constant
Frame rate : 24.000 fps
Color space : YUV
Chroma subsampling : 4:2:0
Bit depth : 8 bits
Scan type : Progressive
Bits/(Pixel*Frame) : 0.062
Stream size : 19.5 MiB (90%)
Tagged date : UTC 2011-11-25 04:19:41

Audio
ID : 2
Format : AAC
Format/Info : Advanced Audio Codec
Format profile : LC
Codec ID : 40
Duration : 2mn 0s
Bit rate mode : Variable
Bit rate : 152 Kbps
Maximum bit rate : 241 Kbps
Channel(s) : 2 channels
Channel positions : Front: L R
Sampling rate : 44.1 KHz
Compression mode : Lossy
Stream size : 2.17 MiB (10%)
Title : IsoMedia File Produced by Google, 5-11-2011
Encoded date : UTC 2011-11-25 04:19:41
Tagged date : UTC 2011-11-25 04:19:41

Tên phim: Larva - Ấu Trùng Tinh Nghịch (2011)

Đạo diễn: Deabum Kim

Diễn viên: Red, Yellow, Violet

Thể loại: Hoạt hình hài hước

Sản xuất: Tuba Entertainment

Quốc gia: Korea

Thời lượng: Nhiều tập

Năm phát hành: 2011


Giới Thiệu:

Bộ phim hoạt hình hài hước kể về hai chú ấu trùng nhỏ, Red (Màu đỏ) và Yellow (Màu vàng). Phía dưới cống thoát nước của thành phố, nơi mà người ta thường ít để ý tới. Tại nơi “bí mật” này, Red và Yellow “thưởng thức” mọi thứ mà người ta ném xuống cống , như nhai kẹo cao su, kem, tiền xu, nhẫn… Đôi khi hộ gặp rắc rối với các loại côn trùng khác, hay đơn giản chỉ tranh giành thức ăn, cãi cọ giữa Red và Yellow, tất cả đã mang lại 1 bộ phim hoạt hình vui vẻ ngoài sức tưởng tượng của bất kì ai.
















Bấm vào đây để đăng nhập và xem link! Pass: xitrum34


THANKS!

Lưu ý khi sử dụng

- Gặp Link download hỏng, hãy đăng trả lời (yêu cầu link download mới), Các MOD sẽ cập nhật link sớm nhất
- Tìm kiếm trước khi đăng bài mới

Chủ đề liên quan:
Advertisement
By nuchuamario85
Kết nối đề xuất:
Thành ngữ tiếng Anh có chứa die
Advertisement
Advertisement